<?xml version="1.0" standalone="no"?>
<!DOCTYPE svg PUBLIC "-//W3C//DTD SVG 1.1//EN" "http://www.w3.org/Graphics/SVG/1.1/DTD/svg11.dtd" >
<svg xmlns="http://www.w3.org/2000/svg">
<defs>
  <font id="opal-icon" horiz-adv-x="1001">
    <font-face font-family="opal-icon"
      units-per-em="1001" ascent="1001"
      descent="0" />
    <missing-glyph horiz-adv-x="0" />
    <glyph glyph-name="360"
      unicode="&#xE001;"
      horiz-adv-x="1001" d="M500.5 45.88959375C319.06875 45.88959375 154.31040625 152.24584375 85.49165625 319.06875C85.49165625 321.16459375 81.33125 327.42084375 75.075 327.42084375C52.14584375 335.7729374999999 35.44165625 339.93334375 25.025 344.09375C12.5125 348.25415625 10.41665625 348.25415625 8.35209375 348.25415625L0 352.4145625V646.4583124999999L12.5125 650.61871875C14.60834375 650.61871875 22.92915625 652.7145625 56.30625 665.2270625L81.33125 675.6437187500001L85.49165625 677.7395625C87.5875 677.7395625 89.6520625 679.83540625 89.6520625 686.0916562499999C162.63121875 844.59375 325.2937187500001 948.85415625 500.4687187499999 948.85415625C677.7395624999999 948.85415625 838.30621875 844.59375 911.285375 681.9312500000001C911.285375 679.83540625 915.4457812499998 673.5791562500001 921.7020312499998 673.5791562500001C963.3999374999999 661.06665625 986.3603749999997 650.6500000000001 990.52078125 648.55415625L1000.9374374999998 644.3937500000001V352.4458437500001L988.4249374999998 348.2854375000002S984.2645312499998 346.1895937500001 965.4957812499998 339.9333437500002C952.9832812499998 335.7729375000002 938.3749374999998 329.5166875000002 919.6061875 323.2604375000001H917.5103437499998C915.4144999999997 323.2604375000001 913.3499374999998 321.1645937500001 913.3499374999998 314.9083437500001C840.3707812499998 152.2458437500002 679.77284375 45.8895937500001 500.4374374999999 45.8895937500001zM162.6625 302.3958437500001C158.50209375 302.3958437500001 152.24584375 300.3000000000001 150.15 294.0437500000001C148.05415625 291.9479062500001 148.05415625 285.6916562500001 150.15 281.5312500000001C223.12915625 158.5020937500001 354.51040625 83.42709375 500.5 83.42709375C644.3937500000001 83.42709375 773.67915625 156.40625 850.85 277.3708437500001C852.94584375 281.53125 852.94584375 289.88334375 848.7541562499999 291.9791875C846.6583125 294.07503125 844.59375 296.13959375 838.3375 296.13959375C836.24165625 296.13959375 836.24165625 296.13959375 834.17709375 296.13959375C713.2125 264.85834375 602.6958437500001 246.08959375 500.5 246.08959375C381.63125 250.2499999999999 254.41040625 281.5312499999999 162.6625 302.39584375zM45.88959375 621.46459375C41.7291875 621.46459375 37.5375 613.1125000000001 37.5375 608.95209375V389.98334375C37.5375 385.8229375 41.69790625 377.47084375 47.95415625 377.47084375C145.9583125 346.18959375 339.9020625 287.7875 498.40415625 287.7875C677.7395625 287.7875 861.26665625 344.09375 955.11040625 377.47084375C959.2708125 377.47084375 963.4625 385.8229375 963.4625 389.98334375V608.9520937499999C963.4625 613.1125 959.30209375 621.46459375 953.04584375 621.46459375C894.6437500000001 640.2333437499999 681.9312500000001 711.1479374999999 496.3395937500001 711.1479374999999C408.7520937500002 709.0520937499999 260.6979375000001 694.47503125 45.8895937500001 621.46459375zM496.33959375 750.75C617.3041875 750.75 744.49375 723.62915625 830.0166875 700.7H834.1770937499999C838.3374999999999 700.7 844.5937499999999 702.79584375 846.6895937499999 709.05209375C848.7854375 713.2125000000001 848.7854375 719.46875 846.6895937499999 721.5645937500001C769.51875 840.43334375 642.3291874999999 909.25209375 500.4999999999999 909.25209375C362.8624999999999 909.25209375 233.5770937499999 840.43334375 154.3104062499999 721.5645937500001C152.2145624999999 717.4041875 154.3104062499999 709.05209375 156.4062499999999 706.95625S160.5666562499999 702.7958437499999 166.8229062499999 702.7958437499999H170.9833124999999C291.9479062499999 734.0770937499999 402.4645624999999 750.75 496.3083124999999 750.75zM450.45 412.9125C448.35415625 412.9125 442.0979062500001 415.00834375 442.0979062500001 423.32915625V604.76040625C442.0979062500001 608.9208124999999 444.19375 613.1125 446.2583125000001 613.1125H448.3541562500001L606.85625 519.26875C608.95209375 519.26875 608.95209375 517.1729062499999 608.95209375 517.1729062499999C608.95209375 515.0770624999999 608.95209375 513.0124999999999 606.85625 508.8208124999999L448.3541562500001 417.07290625C450.45 412.9125 450.45 412.9125 450.45 412.9125z" />
    <glyph glyph-name="account"
      unicode="&#xE002;"
      horiz-adv-x="1001" d="M721.56459375 786.19165625C721.56459375 842.49790625 700.6999999999999 900.9 656.90625 936.34165625C615.20834375 980.13540625 556.80625 1001 500.5 1001S385.79165625 980.13540625 344.09375 936.34165625C300.3 892.54790625 279.43540625 842.49790625 279.43540625 786.19165625S300.3 671.4833125 344.09375 636.04165625C387.8875 585.99165625 444.19375 565.1270625 500.5 565.1270625S615.20834375 585.99165625 656.90625 629.78540625C700.6999999999999 671.4833125 721.56459375 721.5333125 721.56459375 786.19165625zM679.83540625 786.19165625C679.83540625 736.14165625 665.2270625000001 700.7 629.7854062499999 665.2270625S550.55 608.9208125 500.5 608.9208125S406.65625 623.5291562499999 371.21459375 658.9708125C342.0291875000001 694.41246875 321.1645937500001 738.20621875 321.1645937500001 788.25621875S335.7729375000001 882.09996875 371.21459375 909.2208125C406.65625 944.66246875 450.45 959.2708125 500.5 959.2708125S594.34375 944.66246875 629.7854062499999 909.2208125C656.90625 871.6833124999999 679.83540625 829.98540625 679.83540625 786.1916562499999zM1001 20.86459375C1001 156.40625 950.95 271.1145937500001 850.85 371.2145937500001C750.75 465.0583437500001 636.04165625 515.10834375 500.5 515.10834375S243.9937500000001 465.0583437500001 150.15 371.2145937500001C50.05 279.4666875000001 0 156.40625 0 20.86459375C0 6.2562500000001 6.25625 0 20.86459375 0H980.1666875C994.77503125 0 1001.0312812500002 6.25625 1001.0312812500002 20.86459375zM185.59165625 350.35C271.0833125000001 429.58540625 379.53540625 471.31459375 500.5 471.31459375S729.88540625 427.5208437500001 815.40834375 342.0291875000001S950.95 156.43753125 959.30209375 35.4729375000001H43.7937500000001C50.0500000000001 164.75834375 93.8437500000001 264.85834375 185.5916562500001 350.3812812500001z" />
    <glyph glyph-name="armchair"
      unicode="&#xE003;"
      horiz-adv-x="1001" d="M865.45834375 759.10209375L863.3625000000001 809.1520937500001C863.3625000000001 886.3229375000001 800.8000000000001 948.8854375 725.7250000000001 948.8854375H258.6020937500001C183.5270937500001 948.8854375 120.9645937500001 886.3229375000001 120.9645937500001 811.2479375V759.10209375C54.2416875000001 752.84584375 1e-13 694.4437499999999 1e-13 623.5604375V189.78334375C1e-13 181.43125 8.3520937500001 173.1104375 16.6729062500001 173.1104375H131.3812500000001L125.1250000000001 62.5937812499999L160.5666562500001 60.4979374999999L168.9187500000001 175.20628125H819.5687500000001L827.92084375 60.4979374999999L863.3625000000001 62.5937812499999L855.0104062500001 175.20628125H986.39165625C994.74375 175.20628125 1003.0645625 183.558375 1003.0645625 191.8791875000001V623.5604375C1000.9687187500002 698.6354375000001 940.5020625 759.10209375 865.4270625000001 759.10209375zM156.40625 811.21665625C156.40625 867.52290625 202.29584375 913.4125 258.60209375 913.4125H725.725C782.03125 913.4125 827.92084375 867.52290625 827.92084375 811.21665625V754.91040625C771.6145937499999 740.3020625 729.9166875 688.1875 729.9166875 623.5291562499999V419.16875H271.11459375V623.5291562499999C271.11459375 690.2520625 223.1604375 746.5583125 156.40625 757.00625zM965.55834375 210.61665625H35.4729375V623.5291562499999C35.4729375 677.7395625 79.2666875 723.62915625 135.5729375 723.62915625C189.78334375 723.62915625 235.6729375 679.83540625 235.6729375 623.5291562499999V400.4C235.6729375 392.04790625 244.0250312500001 383.72709375 252.34584375 383.72709375H746.5895937500001C754.9416875000001 383.72709375 763.2625 392.0791875 763.2625 400.4V623.5291562499999C763.2625 677.7395625 807.05625 723.62915625 863.3625000000001 723.62915625C917.57290625 723.62915625 963.4625 679.83540625 963.4625 623.5291562499999z" />
    <glyph glyph-name="arrow-left"
      unicode="&#xE004;"
      horiz-adv-x="500.5" d="M500.5 1001L510.91665625 990.58334375L20.8333125 500.5L510.91665625 10.41665625L500.4999999999999 0L-1e-13 500.5z" />
    <glyph glyph-name="arrow-right"
      unicode="&#xE005;"
      horiz-adv-x="500.5" d="M510.91665625 500.5L10.41665625 0L-1e-13 10.41665625L490.0833437499999 500.5L-1e-13 990.58334375L10.4166562499999 1001z" />
    <glyph glyph-name="bag"
      unicode="&#xE006;"
      horiz-adv-x="1001" d="M961.3040937500002 741.866125V43.88759375H41.7917500000001V741.8661249999999zM961.3040937500002 783.657875H41.7917500000001C18.8000312500001 783.657875 1e-13 764.85784375 1e-13 741.866125V43.88759375C1e-13 20.8958749999999 18.8000312500001 2.09584375 41.7917500000001 2.09584375H961.3040937500002C984.2958125 2.09584375 1003.09584375 20.8958749999999 1003.09584375 43.88759375V741.8661249999999C1003.09584375 764.8578437499999 984.2958125 783.6578749999999 961.3040937500002 783.6578749999999zM265.390125 551.7074062500001C252.84634375 551.7074062500001 244.49425 562.1553437499999 244.49425 572.60328125C244.49425 812.9371249999999 357.357 1001 501.53228125 1001S758.5703125 812.90584375 758.5703125 572.60328125C758.5703125 560.0595000000001 748.122375 551.7074062500001 737.6744375000001 551.7074062500001S716.7785625 562.1553437499999 716.7785625 572.60328125C714.68271875 785.75371875 618.5554375 959.20825 501.53228125 959.20825S288.3818437500001 785.75371875 288.3818437500001 574.699125C288.3818437500001 562.1553437499999 277.9339062500001 551.7074062500001 265.3901250000001 551.7074062500001z" />
    <glyph glyph-name="cart-empty"
      unicode="&#xE007;"
      horiz-adv-x="1001" d="M306.5562500000001 375.375L181.43125 938.4375H0V875.875H131.38125L256.50625 310.7166562500001H1001V375.375zM813.3125 250.25C761.16665625 250.25 719.46875 208.5520937500001 719.46875 156.40625S761.16665625 62.5625 813.3125 62.5625S907.15625 104.26040625 907.15625 156.40625S865.45834375 250.25 813.3125 250.25zM813.3125 125.125C796.63959375 125.125 782.03125 137.6374999999999 782.03125 156.40625S796.63959375 187.6875 813.3125 187.6875S844.59375 175.1750000000001 844.59375 156.40625S832.0812500000001 125.125 813.3125 125.125zM344.09375 250.25C291.94790625 250.25 250.25 208.5520937500001 250.25 156.40625S291.94790625 62.5625 344.09375 62.5625S437.9375 104.26040625 437.9375 156.40625S396.23959375 250.25 344.09375 250.25zM344.09375 125.125C327.42084375 125.125 312.8125 137.6374999999999 312.8125 156.40625S325.325 187.6875 344.09375 187.6875C360.76665625 187.6875 375.375 175.1750000000001 375.375 156.40625S360.76665625 125.125 344.09375 125.125zM458.80209375 479.63540625L640.23334375 661.06665625L821.66459375 479.63540625L865.4583437499999 523.42915625L684.02709375 704.8604062499999L865.4583437499999 886.29165625L821.66459375 930.0854062499998L640.23334375 748.6541562499999L458.8020937499999 927.9895625L417.1041874999999 886.29165625L598.5354375 704.8604062499999L415.0083437499999 521.3333124999999z" />
    <glyph glyph-name="cart"
      unicode="&#xE008;"
      horiz-adv-x="1001" d="M792.44790625 54.21040625C727.7895625 54.21040625 675.675 106.3562500000001 675.675 170.9833125S727.82084375 287.75621875 792.44790625 287.75621875S909.2208125 235.610375 909.2208125 170.9833125S857.0749687499999 54.21040625 792.44790625 54.21040625zM792.44790625 227.32084375C763.2624999999999 227.32084375 738.2375 202.29584375 738.2375 171.01459375S763.2624999999999 116.8041874999999 794.5437499999999 116.8041874999999C823.72915625 116.8041874999999 848.7541562499999 141.8291875 848.7541562499999 173.1104375C846.6583125 202.29584375 821.6333125 227.32084375 792.44790625 227.32084375zM269.01875 354.51040625L143.89375 886.29165625H0V948.85415625H191.84790625L319.06875 417.07290625H844.59375L921.76459375 719.46875H552.6458437499999V782.03125H1001L896.73959375 354.51040625zM344.09375 54.21040625C281.53125 54.21040625 227.32084375 108.4208125 227.32084375 170.9833125S281.53125 287.75621875 344.09375 287.75621875C408.7520937500001 287.75621875 460.86665625 235.610375 460.86665625 170.9833125S408.7208125 54.21040625 344.09375 54.21040625zM344.09375 227.32084375C314.9083437500001 227.32084375 289.88334375 202.29584375 289.88334375 171.01459375C289.88334375 141.8291875 314.9083437500001 116.8041874999999 344.09375 116.8041874999999S398.30415625 141.8291875 398.30415625 173.1104375C398.30415625 202.29584375 373.27915625 227.32084375 344.09375 227.32084375z" />
    <glyph glyph-name="cart2"
      unicode="&#xE009;"
      horiz-adv-x="719.46875" d="M696.53959375 20.86459375C706.95625 31.28125 717.4041875 45.88959375 717.4041875 66.7541875000001V761.1979375C717.4041875 782.06253125 713.2437812500001 796.63959375 696.53959375 807.08753125C686.1229375 817.5041875 671.51459375 827.952125 650.65 827.952125H64.65834375C50.05 827.952125 35.4729375 823.79171875 18.76875 807.08753125C4.16040625 792.4791875000001 -2.09584375 777.9021250000001 -2.09584375 761.1979375V64.65834375C-2.09584375 43.7937499999999 2.0645625 29.2166875 18.76875 18.7687500000001C29.18540625 4.1604062500001 43.79375 -2.09584375 64.65834375 -2.09584375H650.65C671.51459375 0 686.09165625 4.1604062499999 696.53959375 20.8333125zM650.65 779.93540625C665.25834375 779.93540625 671.51459375 775.775 671.51459375 759.0708125V62.5312187500001C671.51459375 47.9228750000001 667.3541875000001 41.6666250000001 650.65 41.6666250000001H64.65834375C50.05 41.6666250000001 43.79375 45.82703125 43.79375 62.5312187500001V761.1353750000001C43.79375 775.74371875 47.95415625 781.99996875 64.65834375 781.99996875C64.65834375 779.904125 650.65 779.904125 650.65 779.904125zM554.71040625 715.30834375C554.71040625 794.54375 533.8458125 861.2979375 494.24375 919.66875C454.61040625 971.81459375 410.8166562500001 1001 354.5104062500001 1001S254.4104062500001 971.81459375 214.7770625000001 915.50834375C179.3354062500001 861.2979375 160.5666562500001 790.38334375 160.5666562500001 715.30834375C160.5666562500001 700.7 164.7270625000001 694.44375 181.4312500000001 694.44375S202.2958437500001 698.6041562500001 202.2958437500001 715.30834375C202.2958437500001 786.2229375 216.9041875000001 840.4333437500001 248.1854375000001 890.48334375S312.8437812500001 961.3979375 358.7020937500001 961.3979375S437.9375000000001 936.3729375 469.2187500000001 890.48334375C498.40415625 840.4333437500001 515.10834375 786.2229375 515.10834375 715.30834375C515.10834375 700.7 519.2687500000001 694.44375 535.9729375000002 694.44375C550.5812812500001 696.53959375 554.7416875000001 700.7 554.7416875000001 715.30834375z" />
    <glyph glyph-name="cart3"
      unicode="&#xE00A;"
      horiz-adv-x="1001" d="M792.44790625 54.21040625C727.7895625 54.21040625 675.675 106.3562500000001 675.675 170.9833125S727.82084375 287.75621875 792.44790625 287.75621875S909.2208125 235.610375 909.2208125 170.9833125S857.0749687499999 54.21040625 792.44790625 54.21040625zM792.44790625 227.32084375C763.2624999999999 227.32084375 738.2375 202.29584375 738.2375 171.01459375S763.2624999999999 116.8041874999999 794.5437499999999 116.8041874999999C823.72915625 116.8041874999999 848.7541562499999 141.8291875 848.7541562499999 173.1104375C846.6583125 202.29584375 821.6333125 227.32084375 792.44790625 227.32084375zM269.01875 354.51040625L143.89375 886.29165625H0V948.85415625H191.84790625L319.06875 417.07290625H844.59375L921.76459375 719.46875H552.6458437499999V782.03125H1001L896.73959375 354.51040625zM344.09375 54.21040625C281.53125 54.21040625 227.32084375 108.4208125 227.32084375 170.9833125S281.53125 287.75621875 344.09375 287.75621875C408.7520937500001 287.75621875 460.86665625 235.610375 460.86665625 170.9833125S408.7208125 54.21040625 344.09375 54.21040625zM344.09375 227.32084375C314.9083437500001 227.32084375 289.88334375 202.29584375 289.88334375 171.01459375C289.88334375 141.8291875 314.9083437500001 116.8041874999999 344.09375 116.8041874999999S398.30415625 141.8291875 398.30415625 173.1104375C398.30415625 202.29584375 373.27915625 227.32084375 344.09375 227.32084375z" />
    <glyph glyph-name="chat-support"
      unicode="&#xE00B;"
      horiz-adv-x="1001" d="M279.43540625 373.2791562500001C277.3395625 375.375 275.2750000000001 375.375 273.17915625 379.53540625C254.41040625 394.14375 206.45625 433.7458125 170.9833125000001 471.2833125L166.8229062500001 475.4437187499999H95.9083125C43.76246875 475.4437187499999 -0.03128125 519.23746875 -0.03128125 571.3833124999999V894.61246875C-0.03128125 946.7583125 43.76246875 990.5520625 95.9083125 990.5520625H907.1249687500002C934.2458125 990.5520625 957.17496875 980.13540625 975.94371875 961.36665625C992.6166250000002 942.59790625 1003.0645625 919.66875 1003.0645625 894.64375V567.22290625C1003.0645625 515.0770625 959.2708125000001 471.2833125 907.1249687500002 471.2833125H829.9541250000001C823.6978750000002 479.63540625 819.5374687500001 487.9562187500001 811.185375 496.3083125H907.1249687500002C946.7583125000002 496.3083125 978.0395625000002 527.5895625 978.0395625000002 567.22290625V894.64375C978.0395625000002 934.27709375 946.7583125000002 965.55834375 907.1249687500002 965.55834375H95.9083125000001C56.2749687500001 965.55834375 24.9937187500001 934.27709375 24.9937187500001 894.64375V569.3187499999999C24.9937187500001 529.6854062499999 56.2749687500001 498.40415625 95.9083125000001 498.40415625H179.3354062500001L183.4958125000001 494.24375C204.3604062500001 473.3791562499999 231.4499687500001 446.28959375 262.7312187500001 421.26459375L279.4041250000001 406.65625L287.7562187500001 496.33959375H500.4687187500001C494.2124687500001 487.9875000000001 485.860375 479.6666875 481.6999687500001 471.31459375H310.6853750000001L308.5895312500001 448.3854375L302.3332812500001 358.70209375zM348.25415625 706.95625C331.58125 706.95625 319.06875 721.5645937500001 319.06875 736.14165625C319.06875 752.8145625 333.67709375 765.3270625 348.25415625 765.3270625C364.9270625 765.3270625 377.4395625 750.71871875 377.4395625 736.14165625S364.9270625 706.95625 348.25415625 706.95625zM506.75625 706.95625C490.08334375 706.95625 477.57084375 721.5645937500001 477.57084375 736.14165625C477.57084375 752.8145625 492.1791875 765.3270625 506.75625 765.3270625S535.9416562499999 750.71871875 535.9416562499999 736.14165625S523.42915625 706.95625 506.75625 706.95625zM663.1625 706.95625C646.4895937499999 706.95625 633.97709375 721.5645937500001 633.97709375 736.14165625C633.97709375 752.8145625 648.5854374999999 765.3270625 663.1625 765.3270625C679.83540625 765.3270625 692.3479062499999 750.71871875 692.3479062499999 736.14165625C694.44375 721.5333125 679.83540625 706.95625 663.1625 706.95625zM656.90625 239.8333437500001C590.1833437500001 239.8333437500001 535.9416562499999 294.0437500000001 535.9416562499999 360.7979375000001S590.1520624999999 481.7625312500001 656.90625 481.7625312500001S777.8708437500001 427.5521250000001 777.8708437500001 360.7979375000001S721.56459375 239.8333437500001 656.90625 239.8333437500001zM656.90625 454.61040625C604.76040625 454.61040625 560.96665625 410.8166562500001 560.96665625 358.6708125S604.76040625 262.7312187500001 656.90625 262.7312187500001S752.84584375 306.52496875 752.84584375 358.6708125S709.05209375 454.61040625 656.90625 454.61040625zM852.94584375 18.7687500000001C846.68959375 89.6833437500001 786.2229375000001 148.05415625 713.2125 148.05415625H598.50415625C525.5250000000001 148.05415625 465.0270625000001 91.74790625 458.7708125000001 18.7687500000001H433.7458125000001C440.0020625000001 95.93959375 498.4041562500001 160.5666562500001 575.5437187500002 171.01459375C583.8958125000001 173.1104375000001 590.1520625 173.1104375000001 598.4728750000002 173.1104375000001H713.1812187500002C719.4374687500002 173.1104375000001 727.7895625000002 171.01459375 734.0458125000002 171.01459375C811.2166562500003 160.5979375000002 871.6833125000002 98.0354375000001 875.8437187500003 18.7687500000001z" />
    <glyph glyph-name="checked"
      unicode="&#xE00C;"
      horiz-adv-x="1001" d="M29.18540625 508.85209375L356.60625 181.4312499999999L327.42084375 152.24584375L0 479.6666874999999S29.18540625 508.8520937499999 29.18540625 508.8520937499999zM971.81459375 855.01040625L1001 825.825L327.42084375 152.24584375L298.2354375 181.4312499999999z" />
    <glyph glyph-name="checkout"
      unicode="&#xE00D;"
      horiz-adv-x="1001" d="M880.0354062499999 823.72915625H120.9333125C54.21040625 823.72915625 -0.03128125 773.67915625 -0.03128125 715.2770625V287.7562187499999C-0.03128125 227.2895625 54.179125 179.304125 120.9333125 179.304125H880.0354062499999C946.7583125 179.304125 1001 229.3541250000001 1001 287.7562187499999V715.2770624999999C1001 773.6791562499999 946.78959375 823.72915625 880.0354062499999 823.72915625zM961.36665625 287.7875C961.36665625 248.1541562500001 923.82915625 218.96875 880.0354062499999 218.96875H120.9333125C77.1395625 218.96875 39.6020625 250.25 39.6020625 287.7875V588.0875H959.2708125V627.72084375H39.6020624999999V715.30834375C39.6020624999999 754.9416875 77.1395625 784.1270937499999 120.9333125 784.1270937499999H880.0354062499999C925.925 784.1270937499999 961.36665625 752.8458437499999 961.36665625 715.30834375zM131.38125 400.4H243.9937500000001V360.76665625H131.38125zM277.37084375 400.4H389.98334375V360.76665625H277.37084375z" />
    <glyph glyph-name="close"
      unicode="&#xE00E;"
      horiz-adv-x="1001" d="M37.5375 0C29.18540625 0 18.76875 4.1604062499999 10.41665625 10.41665625S0 27.0895624999999 0 37.5375S4.16040625 56.30625 10.41665625 64.65834375L936.34165625 990.58334375C944.69375 996.83959375 955.11040625 1001 963.4625 1001S982.23125 996.83959375 990.58334375 990.58334375C1005.1916875 975.975 1005.1916875 953.04584375 990.58334375 938.4375L64.65834375 10.41665625C56.30625 4.1604062499999 45.88959375 0 37.5375 0zM963.4625 0C955.11040625 0 944.69375 4.1604062499999 936.34165625 10.41665625L10.41665625 936.34165625C-4.1916875 950.95 -4.1916875 973.87915625 10.41665625 988.4875C18.76875 996.83959375 27.0895625 1001 37.5375 1001S56.30625 996.83959375 64.6583437499999 990.58334375L990.58334375 64.65834375C998.9354375 56.30625 1001 47.9854375 1001 37.5375S996.83959375 18.76875 990.58334375 10.41665625S973.9104375 0 963.4625 0z" />
    <glyph glyph-name="cog"
      unicode="&#xE00F;"
      horiz-adv-x="1001" d="M546.38959375 0H456.70625C429.5854062499999 0 406.65625 22.92915625 406.65625 50.0500000000001V116.77290625C369.11875 125.125 333.67709375 141.79790625 300.3 160.5666562499999L250.25 114.6770625C231.48125 95.9083125 198.10415625 95.9083125 179.33540625 114.6770625L116.77290625 177.2395625C104.26040625 187.65621875 100.1 200.1687187500001 100.1 214.7770625S106.35625 241.89790625 114.70834375 250.21871875L162.6625 298.172875C141.79790625 331.5499687500001 127.22084375 366.991625 118.86875 404.5291249999999H50.05C22.92915625 404.5291249999999 0 427.4582812500001 0 454.579125V544.26246875C0 571.3833125000001 22.92915625 594.31246875 50.05 594.31246875H116.77290625C127.1895625 631.84996875 141.79790625 667.2916250000001 160.56665625 700.66871875L114.6770625 750.71871875C104.26040625 761.1353750000001 100.06871875 773.647875 100.06871875 786.160375C100.06871875 800.7687187500001 104.229125 813.28121875 114.6770625 821.60203125L177.2395625 884.16453125C187.65621875 896.67703125 200.16871875 900.8374375 214.7770625 900.8374375S241.89790625 894.5811875 250.21871875 886.2290937500001L298.1728749999999 838.2749375C331.54996875 859.13953125 366.991625 873.71659375 404.529125 882.0686875V950.8874375C404.529125 978.00828125 427.45828125 1000.9374375 454.5791249999999 1000.9374375H544.2624687499999C571.3833125 1000.9374375 594.31246875 978.00828125 594.31246875 950.8874375V884.16453125C631.8499687499999 875.8124375 667.2916250000001 859.13953125 700.6687187499999 840.3707812499999L750.71871875 886.2603750000001C769.4874687500001 905.029125 802.8645625 905.029125 821.6333125 886.2603750000001L884.1958125 823.6978750000001C894.61246875 813.28121875 898.8041562499999 800.7687187500001 898.8041562499999 788.25621875C898.8041562499999 773.647875 892.54790625 761.1353750000001 884.1958125 752.8145625L836.2416562499999 704.8604062500001C857.1062499999999 671.4833125 871.6833124999998 636.0416562500001 880.0354062499998 598.50415625H946.7583124999998C973.8791562499998 598.50415625 996.8083124999998 575.575 996.8083124999998 548.4541562500001V458.7708125C996.8083124999998 431.64996875 973.8791562499998 408.7208125 946.7583124999998 408.7208125H880.0354062499998C871.6833124999998 371.1833125 855.0104062499998 335.7416562499999 836.2416562499999 302.3645625000001L884.1958125 254.41040625C894.61246875 243.99375 898.8041562499999 231.48125 898.8041562499999 218.96875C898.8041562499999 204.36040625 892.54790625 191.8479062499999 884.1958125 183.5270937500001L821.6333125 120.9645937500001C802.8645624999999 102.19584375 769.48746875 102.19584375 750.71871875 120.9645937500001L702.7645624999999 168.9187500000001C669.3874687499999 148.05415625 633.9458125 133.4770937500001 596.4083125 125.1250000000001V58.4020937500002C596.4083125 22.9604375000001 573.47915625 1e-13 546.3583124999999 1e-13zM291.94790625 214.8083437500001L306.5562500000001 206.4562500000001C344.09375 181.43125 385.79165625 164.7583437500001 429.58540625 154.31040625L446.2583125 150.15V50.0500000000001C446.2583125 45.88959375 450.41871875 41.6979062500001 454.61040625 41.6979062500001H544.2937499999999C548.45415625 41.6979062500001 552.6458437499999 45.8583125 552.6458437499999 50.0500000000001V150.15L569.31875 154.31040625C613.1125 162.6625 654.81040625 181.43125 692.3479062499999 206.4562500000001L706.95625 214.8083437500001L777.87084375 143.8937500000001C779.9666874999999 141.79790625 782.0312499999999 141.79790625 784.1270937499999 141.79790625S788.2874999999999 141.79790625 790.3833437499999 143.8937500000001L855.0416874999999 208.5520937500001C857.1375312499999 210.6479375 857.1375312499999 212.7125 857.1375312499999 214.8083437500001S857.1375312499999 218.96875 855.0416874999999 221.06459375L786.2229375 291.9791875L794.5750312499999 306.58753125C819.6000312499999 344.1250312499999 836.2729374999998 385.8229375 846.720875 429.6166874999999L850.8812812499999 446.28959375H950.98128125C955.1416874999998 446.28959375 959.3333749999998 450.4499999999999 959.3333749999998 454.6416875V544.3250312499999C959.3333749999998 548.4854375 955.1729687499998 552.6771249999999 950.98128125 552.6771249999999H850.8812812499999L846.720875 569.35003125C838.36878125 613.14378125 819.6000312499999 654.8416875 794.5750312499999 692.3791875L786.2229375 709.0520937499999L857.1375312499999 779.9666874999999C859.2333749999999 782.0625312499999 859.2333749999999 784.1270937499999 859.2333749999999 786.2229375S859.2333749999999 790.38334375 857.1375312499999 792.4791875L792.4791874999999 855.0416875C790.3833437499999 857.1375312499999 788.3187812499999 857.1375312499999 786.2229375 857.1375312499999S782.0625312499999 857.1375312499999 779.9666874999999 855.0416875L709.0520937499999 786.2229375L694.44375 796.6395937499999C656.90625 821.66459375 615.2083437499999 838.3375 571.41459375 848.7854375L554.7416874999999 852.94584375V950.95C554.7416874999999 955.1104062499998 550.58128125 959.30209375 546.38959375 959.30209375H456.70625C452.54584375 959.30209375 448.35415625 955.1416874999998 448.35415625 950.95V850.8499999999999L431.68125 846.6895937499999C387.8875 838.3374999999999 346.18959375 819.5687499999999 308.65209375 794.5437499999999L291.9791875 784.1270937499999L221.06459375 855.0416875C218.96875 857.1375312499999 216.9041875 857.1375312499999 214.80834375 857.1375312499999S210.6479375 857.1375312499999 208.55209375 855.0416875L145.98959375 790.38334375C143.89375 788.2874999999999 143.89375 786.2229375 143.89375 784.1270937499999S143.89375 779.9666874999999 145.98959375 777.87084375L216.9041875 706.95625L206.48753125 692.3479062499999C181.46253125 654.8104062499999 164.789625 613.1125 154.3416875 569.3187499999999L150.18128125 552.6458437499999H50.08128125C45.920875 552.6458437499999 43.82503125 550.55 43.82503125 550.55S41.7291875 546.3895937499999 41.7291875 544.2937499999999V454.61040625C41.7291875 450.4499999999999 45.88959375 446.2583125 50.08128125 446.2583125H150.18128125L154.3416875 429.5854062499999C162.69378125 385.79165625 181.46253125 344.0937499999999 206.48753125 306.5562499999999L216.9041875 291.94790625L145.98959375 221.0333125C143.89375 218.93746875 143.89375 216.87290625 143.89375 214.7770625S143.89375 210.61665625 145.98959375 208.5208125L210.6479375 143.8624687500001C212.74378125 141.766625 214.80834375 141.766625 216.9041875 141.766625S221.06459375 141.766625 223.1604375 143.8624687500001zM500.5 233.57709375C352.44584375 233.57709375 233.57709375 354.5416875 233.57709375 500.5S352.44584375 767.42290625 500.5 767.42290625S767.42290625 648.55415625 767.42290625 500.5S648.55415625 233.57709375 500.5 233.57709375zM500.5 725.7249999999999C375.375 725.7249999999999 275.2750000000001 623.5291562499999 275.2750000000001 500.5S375.375 275.275 500.5 275.275S725.725 375.375 725.725 500.5S625.625 725.7249999999999 500.5 725.7249999999999z" />
    <glyph glyph-name="community"
      unicode="&#xE010;"
      horiz-adv-x="1001" d="M588.0875 431.68125C560.96665625 431.68125 538.0375 419.1687500000001 521.36459375 398.30415625L419.1687500000001 456.7062500000001C423.3291562500001 467.12290625 425.4250000000001 477.5708437500001 425.4250000000001 490.08334375C425.4250000000001 506.75625 421.2645937500001 521.36459375 412.9125 533.8770937500001L523.42915625 590.1833437500001C538.0375 573.5104375000001 560.96665625 560.9979375 585.99165625 560.9979375C631.88125 560.9979375 667.3229062500001 598.5354375000001 667.3229062500001 642.3291875000001S629.78540625 723.6604375000001 585.99165625 723.6604375000001S504.66040625 686.1229375 504.66040625 642.3291875000001C504.66040625 636.0729375000001 504.66040625 629.8166875000001 506.75625 621.4645937500001L385.79165625 558.9020937500001C373.2791562499999 565.1583437500001 358.6708124999999 569.3187500000001 346.1583125 569.3187500000001C300.26871875 569.3187500000001 264.8270625 531.7812500000001 264.8270625 487.9875000000001S302.3645625 406.65625 346.1583125 406.65625C364.9270625 406.65625 383.6958125 412.9125 398.30415625 425.4250000000001L508.8208124999999 362.8625000000001V350.3500000000002C508.8208124999999 304.4604062500001 546.3583124999999 269.0187500000001 590.1520624999999 269.0187500000001S671.4833125 306.55625 671.4833125 350.3500000000002S631.84996875 431.6812500000001 588.05621875 431.6812500000001zM588.0875 686.0916562499999C613.1125000000001 686.0916562499999 631.88125 667.32290625 631.88125 642.29790625S613.1125 598.50415625 588.0875 598.50415625S544.29375 617.27290625 544.29375 642.29790625S563.0625000000001 686.0916562499999 588.0875 686.0916562499999zM344.09375 444.19375C319.06875 444.19375 300.3 462.9625 300.3 487.9875S319.06875 531.78125 344.09375 531.78125S387.8875 513.0124999999999 387.8875 487.9875S369.1187500000001 444.19375 344.09375 444.19375zM588.0875 304.46040625C563.0625 304.46040625 544.29375 323.2291562500001 544.29375 348.25415625S563.0625000000001 392.04790625 588.0875 392.04790625S631.88125 373.2791562499999 631.88125 348.25415625C631.88125 325.325 611.01665625 304.46040625 588.0875 304.46040625zM500.5 1001C223.12915625 1001 0 775.775 0 500.5C0 412.9125 22.92915625 325.325 66.72290625 250.25L68.81875 248.1541562500001L25.025 95.9083125C18.76875 77.1395624999999 25.025 56.27496875 39.63334375 39.6020625C54.2416875 24.99371875 75.075 18.7374687499999 95.93959375 24.99371875L250.25 68.7874687499999L252.34584375 66.6916249999999C327.42084375 22.897875 412.9125 -0.0312812500001 500.5 -0.0312812500001C775.775 -0.0312812500001 1001 223.0978749999998 1001 500.4687187499998S775.775 1000.9687187499998 500.5 1000.9687187499998zM500.5 39.63334375C417.07290625 39.63334375 333.67709375 62.5625 262.7625 106.3562499999999L254.41040625 110.51665625L83.3958125 62.5624999999999C77.1395625 60.4666562499999 70.8833125000001 62.5624999999999 66.72290625 66.7229062499998S60.46665625 77.1395624999998 62.5625 83.3958124999999L112.6125000000001 252.3145624999999L108.4520937500001 258.5708124999999C62.5625 331.54996875 37.5375 414.9770624999999 37.5375 500.4687187499998C37.5375 754.8791249999998 246.0895937500001 961.3353749999998 500.5000000000001 961.3353749999998S961.3666562500002 754.8791249999999 961.3666562500002 500.4687187499998S752.8145625000001 39.6020624999999 500.5000000000001 39.6020624999999z" />
    <glyph glyph-name="compare"
      unicode="&#xE011;"
      horiz-adv-x="1001" d="M852.94584375 442.09790625L704.8916875 590.1520625L734.07709375 619.33746875L852.94584375 500.4687187499999L971.81459375 619.33746875L1001 590.1520625zM873.77915625 490.08334375H832.0812500000001V673.6104375000001C832.0812500000001 721.5645937500001 792.4479062500001 761.1979375000001 742.39790625 761.1979375000001H148.05415625V802.89584375H742.39790625C813.3125 802.89584375 871.6833124999999 744.4937500000001 871.6833124999999 673.6104375000001V490.08334375zM266.92290625 389.98334375L148.05415625 508.85209375L29.18540625 389.98334375L0 419.16875L148.05415625 567.22290625L296.1083125 419.16875zM852.94584375 208.5520937500001H258.60209375C187.6875 208.5520937500001 129.3166875 266.9541875000001 129.3166875 337.8375V521.36459375H171.01459375V337.8375C171.01459375 289.88334375 210.6479375 250.25 258.60209375 250.25H852.94584375z" />
    <glyph glyph-name="coupon"
      unicode="&#xE012;"
      horiz-adv-x="1001" d="M894.6437500000001 792.44790625H106.3562500000001C47.9541562500001 792.44790625 1e-13 748.65415625 1e-13 696.5083125V314.8770625000001C1e-13 262.7312187500001 47.9541562500001 218.9374687500001 106.3562500000001 218.9374687500001H892.54790625C950.95 218.9374687500001 998.90415625 262.7312187500001 998.90415625 314.8770625000001V696.5083125000001C1001 748.65415625 953.0145625 792.4479062500001 894.6437500000001 792.4479062500001zM969.71875 314.90834375C969.71875 279.4666875000001 936.34165625 250.25 894.6437500000001 250.25H312.8125V298.20415625H281.53125V250.25H106.35625C64.65834375 250.25 31.28125 279.4354062500001 31.28125 314.90834375V696.53959375C31.28125 731.9812499999999 64.65834375 761.1979375 106.35625 761.1979375H279.43540625V740.33334375H312.8125V761.1979375H894.6437500000001C936.34165625 761.1979375 969.71875 732.0125312499999 969.71875 696.53959375zM281.53125 675.675H312.8125V613.1125H281.53125zM281.53125 423.32915625H312.8125V360.76665625H281.53125zM281.53125 550.55H312.8125V487.9875000000001H281.53125zM529.68540625 329.48540625L721.5333125 688.1875L748.65415625 673.5791562500001L558.8708124999999 314.8770625000001S529.68540625 329.48540625 529.68540625 329.48540625zM592.24790625 600.5999999999999C592.24790625 642.29790625 558.8708124999999 675.675 517.17290625 675.675S442.0979062500001 642.29790625 442.0979062500001 600.5999999999999S475.475 525.525 517.17290625 525.525S592.24790625 558.90209375 592.24790625 600.5999999999999zM517.17290625 556.8062500000001C492.14790625 556.8062500000001 473.3791562500001 577.67084375 473.3791562500001 600.6S494.24375 644.3937500000001 517.17290625 644.3937500000001C542.1979062500001 644.3937500000001 560.96665625 623.52915625 560.96665625 600.6S540.1020625 556.8062500000001 517.17290625 556.8062500000001zM761.16665625 479.63540625C719.46875 479.63540625 686.09165625 446.2583125 686.09165625 404.5604062500001S719.46875 329.48540625 761.16665625 329.48540625S836.2416562499999 362.8625000000001 836.2416562499999 404.5604062500001S804.9604062499999 479.63540625 761.16665625 479.63540625zM761.16665625 360.76665625C736.14165625 360.76665625 717.37290625 381.6312500000002 717.37290625 404.5604062500001C717.37290625 429.58540625 738.2375000000001 448.35415625 761.16665625 448.35415625S804.9604062499999 427.4895624999999 804.9604062499999 404.5604062500001C807.0562499999999 379.53540625 788.2874999999999 360.76665625 761.16665625 360.76665625z" />
    <glyph glyph-name="down"
      unicode="&#xE013;"
      horiz-adv-x="1001" d="M565.15834375 271.1145937500001L988.4875 694.44375C1005.16040625 711.11665625 1005.16040625 742.39790625 988.4875 759.10209375S940.53334375 775.7750000000001 923.82915625 759.10209375L500.5 335.7729375L77.17084375 759.10209375C60.4979375 775.7750000000001 29.2166875 775.7750000000001 12.5125 759.10209375S-4.16040625 711.1479375000001 12.5125 694.44375L467.12290625 239.8333437500001C475.475 231.4812500000001 487.9875 227.3208437500001 500.5 225.2250000000002C513.0124999999999 225.2250000000002 523.42915625 231.4812500000001 533.87709375 239.8333437500001z" />
    <glyph glyph-name="drawer"
      unicode="&#xE014;"
      horiz-adv-x="1001" d="M978.07084375 907.15625H22.9604374999999C10.4479374999999 907.15625 0.0312812499999 896.73959375 0.0312812499999 884.22709375V93.84375H43.8250312499999V421.26459375H957.23753125V93.84375H1001.0312812499998V884.22709375C1001.0312812499998 896.73959375 990.614625 907.15625 978.1021249999998 907.15625zM957.20625 465.0583437500001H43.7937500000001V863.3625000000001H957.20625zM417.07290625 686.0916562499999H585.99165625V642.29790625H417.07290625z" />
    <glyph glyph-name="fAQs"
      unicode="&#xE015;"
      horiz-adv-x="938.4375" d="M373.27915625 646.48959375C314.8770625 646.48959375 266.92290625 598.5354375 266.92290625 540.13334375S314.8770625 433.7770937500001 373.27915625 433.7770937500001S479.63540625 481.73125 479.63540625 540.13334375S431.6812500000001 646.48959375 373.27915625 646.48959375zM373.27915625 465.0583437500001C331.58125 465.0583437500001 298.20415625 498.4354375 298.20415625 540.13334375S333.6458125000001 615.20834375 373.27915625 615.20834375S448.35415625 579.7666875000001 448.35415625 540.13334375S414.9770625 465.0583437500001 373.27915625 465.0583437500001zM880.0354062499999 323.22915625H819.56875C798.70415625 323.22915625 782.03125 310.7166562500001 775.775 291.94790625H729.8854062500001C729.8854062500001 296.1083124999999 729.8854062500001 300.3 729.8854062500001 304.4604062499999V396.2083124999999L819.5687500000001 446.2583125L736.14165625 590.1520624999999C721.5333125000001 615.1770624999999 715.2770624999999 638.1062187499999 713.2125 667.32290625C702.79584375 855.01040625 546.38959375 1001 356.60625 1001C160.56665625 1001 0 840.43334375 0 644.39375C0 558.90209375 31.28125 477.5708437499999 85.49165625 412.9124999999999C145.9583125 344.0937499999999 175.175 264.8583437499999 175.175 171.0145937499999V-2e-13H206.45625V171.0145937499998C206.45625 269.0187499999998 173.07915625 356.6062499999997 110.51665625 431.6812499999997C60.46665625 490.0833437499997 33.3458125 567.2229062499997 33.3458125 644.3937499999997C33.3458125 807.0562499999997 152.2145625 940.5333437499997 306.52496875 967.6229062499996V694.4437499999997C248.122875 667.3229062499997 208.5208125 611.0166562499996 208.5208125 542.1979062499997C208.5208125 450.4499999999997 283.5958125 375.3749999999998 375.34371875 375.3749999999998C408.7208125 375.3749999999998 442.066625 385.7916562499998 467.091625 402.4958437499999L690.22078125 271.1145937499998C681.8686875 258.6020937499999 667.291625 246.0895937499999 650.5874375 239.8333437499998L596.37703125 221.0645937499998C569.2561874999999 212.7124999999998 496.2770312499999 185.6229374999998 496.2770312499999 125.1249999999998V-2e-13H527.5582812499999V127.2208437499998C527.5582812499999 154.3416874999998 552.58328125 175.1749999999999 606.7936875 193.9437499999998L661.00409375 212.7124999999998C688.1249375 221.0645937499998 708.95825 239.8333437499998 721.47075 262.7624999999998H777.777C784.03325 246.0895937499999 800.70615625 233.5770937499999 819.47490625 233.5770937499999H879.9415624999999C904.9665625 233.5770937499999 925.83115625 254.4416875 925.83115625 279.4666874999998C925.83115625 302.3958437499998 904.9665624999998 323.2604374999998 879.9415624999999 323.2604374999998zM333.67709375 969.71875H356.60625C373.27915625 969.71875 387.8875 969.71875 404.56040625 967.62290625V704.86040625C394.14375 706.95625 383.6958125 706.95625 371.1833125 706.95625S344.06246875 704.86040625 333.6458125000001 702.7958437499999zM235.64165625 540.13334375C235.64165625 615.20834375 298.2041562500001 677.77084375 373.27915625 677.77084375S510.91665625 617.3041875 510.91665625 540.13334375C510.91665625 465.0583437500001 448.35415625 402.49584375 373.2791562499999 402.49584375S235.64165625 465.0583437499999 235.64165625 540.13334375zM490.08334375 421.26459375C521.36459375 452.54584375 540.13334375 494.2437499999999 540.13334375 540.13334375C540.13334375 608.9520937499999 496.3395937499999 669.4187499999999 435.8729375 694.4437499999999V961.36665625C571.41459375 927.9895625 675.70628125 809.1208124999999 684.02709375 665.2270624999999C686.1229374999999 631.84996875 694.4437499999999 602.6645624999999 711.1479374999999 575.5437187499999L779.9666874999999 456.6749687499999L702.79584375 414.9770625V302.3645624999999zM880.0354062499999 262.7625H819.56875C811.21665625 262.7625 804.96040625 269.01875 804.96040625 277.37084375S811.21665625 291.9791874999999 819.56875 291.9791874999999H880.0354062499999C888.3874999999999 291.9791874999999 894.64375 285.7229375 894.64375 277.37084375C896.7395937499999 269.01875 888.3874999999999 262.7625 880.0354062499999 262.7625z" />
    <glyph glyph-name="filter"
      unicode="&#xE016;"
      horiz-adv-x="1001" d="M932.18125 1001C936.34165625 1001 938.4375 1001 942.59790625 998.90415625C948.85415625 996.8083125 955.11040625 994.74375 961.36665625 992.64790625C967.62290625 988.4875 973.87915625 986.39165625 978.0395625000002 982.23125C986.39165625 973.87915625 992.64790625 965.55834375 996.8083125 955.11040625S1003.0645625 932.18125 1003.0645625 921.7333125C1000.9687187500002 913.38121875 1000.9687187500002 905.06040625 996.8083125 898.80415625C994.71246875 894.64375 994.71246875 892.54790625 992.6479062500002 890.4520625L681.9312500000001 373.2791562500001V68.81875C681.9312500000001 64.65834375 681.9312500000001 62.5625 679.8354062500001 58.4020937500001C677.7395625000001 52.14584375 675.6750000000002 45.88959375 673.5791562500001 39.63334375C667.3229062500002 29.2166875 661.0666562500002 20.8645937499999 652.7145625 12.5124999999999C642.2979062500001 4.1604062499999 631.84996875 0 621.4333125 -2.09584375C613.0812187500001 -4.1916875000001 606.8249687500002 -4.1916875000001 600.56871875 -4.1916875000001S588.0562187500001 -2.09584375 581.7999687500001 -0.0312812499999C577.6395625 2.0645625000001 575.54371875 2.0645625000001 573.4478750000001 4.129125L360.735375 110.485375C358.63953125 112.5812187500001 356.5749687500001 112.5812187500001 356.5749687500001 112.5812187500001C352.4145625000001 114.6770625 348.2228750000001 118.83746875 344.06246875 120.9333125C331.54996875 131.3499687499999 323.197875 145.9583125 321.1333125 162.6312187499999C319.03746875 166.791625 319.03746875 168.8874687499999 319.03746875 173.0478749999999C319.03746875 175.14371875 319.03746875 177.2082812499999 319.03746875 179.3041249999999V371.1520312499998L10.385375 888.3249374999999L8.28953125 892.4853437499999C6.1936875 896.6457499999999 6.1936875 896.6457499999999 4.129125 900.8374374999999C2.03328125 907.0936874999998 2.03328125 913.3499374999998 -0.03128125 919.6061875C-0.03128125 925.8624375 -0.03128125 932.1186874999999 2.0645625 938.3749374999998C4.16040625 950.8874375 8.3208125 961.3040937499998 16.67290625 969.6561874999998C22.92915625 980.0728437499998 31.28125 986.3290937499999 41.69790625 990.52078125C50.05 994.6811874999999 56.30625 996.77703125 64.6270625 998.872875C68.78746875 1000.9687187499998 70.8833125 1000.9687187499998 75.04371875 1000.9687187499998H927.9895625zM75.075 925.925L394.14375 394.1437500000001V181.43125L606.8562499999999 75.0750000000001V394.1437500000001L925.925 925.925C642.29790625 925.925 358.70209375 925.925 75.075 925.925z" />
    <glyph glyph-name="forum"
      unicode="&#xE017;"
      horiz-adv-x="1001" d="M114.70834375 400.4V319.06875H254.4416875L185.6229375 465.0583437499999C187.71878125 465.0583437499999 114.70834375 465.0583437499999 114.70834375 400.3999999999999zM131.38125 333.6770937500001V398.3354375C131.38125 435.8729375000001 162.6625 444.2250312500001 177.27084375 448.3854375000001L229.4166875 333.6770937500001zM339.93334375 465.0583437500001L271.1145937500001 319.0687500000002H410.8479375S410.8479375 333.6770937500001 410.8479375 400.4000000000001S339.93334375 465.0583437500002 339.93334375 465.0583437500002zM396.23959375 333.6770937500001H296.13959375L348.2854375 448.3854375000001C362.89378125 446.2895937500001 394.17503125 435.8729375000002 394.17503125 398.3354375C400.43128125 400.4312812500001 400.43128125 333.6770937500001 396.270875 333.6770937500001zM266.92290625 481.7312499999999C306.55625 481.7312499999999 337.8375 513.0124999999999 337.8375 552.6458437499999S306.55625 623.5604374999999 266.92290625 623.5604374999999S196.0083125 592.2791874999999 196.0083125 552.6458437499999S225.19371875 481.7312499999999 266.92290625 481.7312499999999zM266.92290625 604.76040625C298.20415625 604.76040625 323.22915625 579.73540625 323.22915625 548.45415625S298.20415625 492.14790625 266.92290625 492.14790625S210.61665625 519.2687500000001 210.61665625 550.5500000000001C210.61665625 579.7354062500001 235.64165625 604.7604062500001 266.92290625 604.7604062500001zM266.92290625 465.0583437500001H216.87290625L266.92290625 356.6062500000001L316.97290625 465.0583437500001zM241.89790625 450.4499999999999H291.94790625L266.92290625 394.14375zM886.29165625 316.97290625S886.29165625 331.58125 886.29165625 398.30415625S813.3125 465.0270624999999 813.3125 465.0270624999999L744.49375 319.0374687499999H886.2916562500001zM821.66459375 450.4499999999999C836.2729374999999 448.35415625 867.5541874999999 437.9375 867.5541874999999 400.3999999999999V333.67709375H767.4541875zM734.07709375 481.7312499999999C773.7104374999999 481.7312499999999 804.9916874999999 513.0124999999999 804.9916874999999 552.6458437499999S773.7104374999999 623.5604374999999 734.07709375 623.5604374999999S663.1625 592.2791874999999 663.1625 552.6458437499999C665.25834375 513.0124999999999 696.53959375 481.7312499999999 734.07709375 481.7312499999999zM734.07709375 604.76040625C765.35834375 604.76040625 790.38334375 579.73540625 790.38334375 548.45415625S765.35834375 492.14790625 734.07709375 492.14790625S681.9312499999999 519.2687500000001 681.9312499999999 550.5500000000001S702.79584375 604.7604062500001 734.07709375 604.7604062500001zM734.07709375 465.0583437500001H684.02709375L734.07709375 356.6062500000001L784.12709375 465.0583437500001zM709.05209375 450.4499999999999H759.1020937500001L734.07709375 394.14375zM389.98334375 571.41459375V556.80625H477.57084375V387.8875H583.9270937499999V316.97290625H723.6604375L654.8416874999999 467.12290625S590.18334375 465.0270624999999 583.9270937499999 404.5604062500001H490.0833437499999V573.47915625C494.2437499999999 571.3833125 389.98334375 571.3833125 389.98334375 571.3833125zM604.76040625 400.4C604.76040625 437.9375 636.04165625 446.28959375 650.6499999999999 450.45L702.79584375 335.7416562500001H602.69584375zM352.44584375 896.73959375H0V100.1000000000001H1001V800.8000000000001H437.9375zM984.32709375 114.7083437500001H14.60834375V880.0666875000001H346.18959375L423.3604375 790.38334375L425.45628125 784.12709375H980.1666875V114.7083437500001z" />
    <glyph glyph-name="grid"
      unicode="&#xE018;"
      horiz-adv-x="1001" d="M786.1916562499999 571.41459375C667.32290625 571.41459375 571.3833125 667.3541875 571.3833125 786.2229375S669.3874687499999 1001.03128125 786.1916562499999 1001.03128125S1001 905.0916875 1001 786.2229375S905.06040625 571.41459375 786.1916562499999 571.41459375zM214.80834375 0C95.93959375 0 0 95.93959375 0 214.8083437500001S95.93959375 429.6166875 214.80834375 429.6166875S429.6166875 333.6770937500001 429.6166875 214.8083437500001S331.61253125 0 214.80834375 0zM214.80834375 571.41459375C95.93959375 571.41459375 0 669.4187499999999 0 786.2229375S95.93959375 1001.03128125 214.80834375 1001.03128125S429.6166875 905.0916875 429.6166875 786.2229375S331.61253125 571.41459375 214.80834375 571.41459375zM786.1916562499999 429.58540625C905.06040625 429.58540625 1001 333.6458125000001 1001 214.7770625S905.06040625 -0.0312812499999 786.1916562499999 -0.0312812499999S571.3833125 95.9083125000001 571.3833125 214.7770625000001S669.3874687499999 429.5854062500001 786.1916562499999 429.5854062500001z" />
    <glyph glyph-name="grid1"
      unicode="&#xE019;"
      horiz-adv-x="1001" d="M996.870875 499.46771875C996.870875 224.97475 776.02525 4.1291249999999 501.5322812499999 4.1291249999999S6.1936874999999 224.9747499999999 6.1936874999999 499.46771875S227.0393124999999 994.8063125 501.5322812499999 994.8063125S996.870875 773.9606875 996.870875 499.46771875zM959.70875 499.46771875C959.70875 245.6203749999999 753.3150625000001 39.2266874999999 499.46771875 39.2266874999999S41.29125 245.6203749999999 41.29125 499.46771875S247.6849375 959.7087499999998 501.53228125 959.7087499999998S959.70875 753.3150625 959.70875 499.46771875z" />
    <glyph glyph-name="grid2"
      unicode="&#xE01A;"
      horiz-adv-x="1001" d="M250.25 875.875C250.25 807.05625 193.94375 750.75 125.125 750.75S0 807.05625 0 875.875S56.30625 1001 125.125 1001S250.25 944.69375 250.25 875.875zM625.625 875.875C625.625 807.05625 569.31875 750.75 500.5 750.75S375.375 807.05625 375.375 875.875S431.6812500000001 1001 500.5 1001S625.625 944.69375 625.625 875.875zM250.25 500.5C250.25 431.68125 193.94375 375.375 125.125 375.375S0 431.68125 0 500.5S56.30625 625.625 125.125 625.625S250.25 569.3187499999999 250.25 500.5zM625.625 500.5C625.625 431.68125 569.31875 375.375 500.5 375.375S375.375 431.68125 375.375 500.5S431.6812500000001 625.625 500.5 625.625S625.625 569.3187499999999 625.625 500.5zM1001 500.5C1001 431.68125 944.69375 375.375 875.875 375.375S750.75 431.68125 750.75 500.5S807.05625 625.625 875.875 625.625S1001 569.3187499999999 1001 500.5zM250.25 125.125C250.25 56.30625 193.94375 0 125.125 0S0 56.30625 0 125.125S56.30625 250.25 125.125 250.25S250.25 193.94375 250.25 125.125zM625.625 125.125C625.625 56.30625 569.31875 0 500.5 0S375.375 56.30625 375.375 125.125S431.6812500000001 250.25 500.5 250.25S625.625 193.94375 625.625 125.125zM1001 125.125C1001 56.30625 944.69375 0 875.875 0S750.75 56.30625 750.75 125.125S807.05625 250.25 875.875 250.25S1001 193.94375 1001 125.125zM1001 875.875C1001 807.05625 944.69375 750.75 875.875 750.75S750.75 807.05625 750.75 875.875S807.05625 1001 875.875 1001S1001 944.69375 1001 875.875z" />
    <glyph glyph-name="heart-emty"
      unicode="&#xE01B;"
      horiz-adv-x="1001" d="M713.2125 888.3875C844.59375 888.3875 950.95 782.03125 950.95 650.6500000000001C950.95 588.0875000000001 925.925 527.62084375 880.0354062499999 483.82709375L869.61875 473.4104375000001L525.525 127.22084375C510.9166562500001 112.6125000000001 487.9875000000001 112.6125000000001 475.475 127.22084375L450.45 152.2458437500001L120.96459375 483.82709375C27.12084375 575.5749999999999 25.025 725.7249999999999 118.86875 817.5041875C164.7583437500001 863.39378125 223.12915625 888.4187812499999 287.7875 888.4187812499999C350.35 888.4187812499999 410.8166562500001 863.39378125 454.61040625 819.60003125L500.5 773.7104374999999L546.38959375 819.60003125C590.18334375 863.39378125 650.6499999999999 888.4187812499999 713.2124999999999 888.4187812499999zM713.2125 938.4375C638.1375 938.4375 565.15834375 909.25209375 510.9166562500001 855.01040625L500.5000000000001 844.59375L490.0833437500001 855.01040625C377.4708437500002 965.5270625 196.0395937500001 965.5270625 83.4270937500001 855.01040625S-29.1854062499999 560.9666562499999 83.4270937500001 448.35415625L440.0333437500002 91.74790625C473.4104375000001 58.3708124999999 527.6208437500002 58.3708124999999 563.0625000000001 91.74790625L650.6500000000001 179.33540625L917.5729062500002 448.35415625C1030.1854062500001 560.9666562499999 1030.1854062500001 742.39790625 917.5729062500002 852.9145624999999C863.3625000000002 909.2208125 790.3520625000002 938.40621875 713.2125000000001 938.40621875z" />
    <glyph glyph-name="heart-fill"
      unicode="&#xE01C;"
      horiz-adv-x="1001" d="M83.42709375 452.54584375L469.21875 66.7541875000001C477.57084375 58.4020937500001 487.9875 54.2416875 498.40415625 54.2416875S521.3333125 58.4020937500001 527.5895624999999 66.7541875000001L917.57290625 452.54584375C971.7833125 506.75625 1001 577.6708437499999 1001 652.74584375S971.81459375 802.8958437499999 917.57290625 855.0416875S792.44790625 938.46878125 717.37290625 938.46878125S569.31875 909.283375 517.17290625 855.0416875L500.5 838.36878125L485.89165625 855.0416875C431.68125 909.25209375 360.76665625 938.46878125 285.69165625 938.46878125S135.54165625 909.283375 83.3958125 855.0416875S-0.03128125 729.9166875 -0.03128125 654.8416874999999S29.154125 506.7875312499999 83.3958125 452.54584375z" />
    <glyph glyph-name="heart-remove"
      unicode="&#xE01D;"
      horiz-adv-x="1001" d="M64.65834375 448.35415625L431.6812500000001 110.51665625C435.84165625 106.3562499999999 442.0979062500001 104.26040625 448.35415625 104.26040625S460.86665625 106.3562499999999 465.0270625 110.51665625L836.24165625 450.4499999999999C857.10625 471.31459375 871.6833124999999 496.3395937499999 882.13125 525.525C892.54790625 552.6458437499999 896.7395937499999 579.73540625 898.80415625 608.9520937499999C898.80415625 621.46459375 888.3875 631.8812499999999 875.875 631.8812499999999S852.94584375 621.46459375 852.94584375 608.9520937499999C852.94584375 586.0229374999999 848.7854375000001 565.15834375 840.4333437500001 542.2291875S819.56875 502.59584375 802.89584375 483.82709375L450.45 160.5979375000001L98.0041562500001 481.7625312499999C83.3958125000001 498.4354375 70.8833125000001 519.30003125 62.5625000000001 540.164625C22.9291562500001 638.1687812499999 70.9145937500001 746.6208750000001 166.8229062500001 784.158375C212.7125000000001 802.927125 264.8270625000001 802.927125 310.7166562500001 782.06253125S392.0479062500001 725.75628125 410.8166562500001 679.8666875C421.2333125000001 656.93753125 423.3291562500001 633.97709375 423.3291562500001 611.0479375C423.3291562500001 598.5354375 433.7458125000001 588.11878125 446.2583125000001 588.11878125S469.1874687500001 598.5354375 469.1874687500001 611.0479375C469.1874687500001 633.97709375 473.3478750000002 656.93753125 481.6999687500002 679.8666874999999C510.8853750000001 754.9416875 583.8958125000001 800.83128125 663.1312187500001 798.7354375C675.6437187500001 798.7354375 686.0603750000001 809.15209375 688.1562187500002 821.66459375C688.1562187500002 834.1770937499999 677.7395625000003 844.5937499999999 665.2270625000002 846.6895937499999C571.3833125000002 850.8499999999999 485.8916562500002 796.6395937499999 446.2583125000002 713.2124999999999C421.2333125000001 765.3583437499999 379.5354062500002 804.9604062499999 327.3895625000001 825.8249999999999C273.1791562500001 850.8499999999999 208.5208125000002 850.8499999999999 150.1187187500002 827.9208437499999C29.1541250000002 779.9666874999999 -31.3125312499998 642.3291875 16.6416250000001 521.3645937499998C27.0582812500001 494.2437499999999 43.7624687500001 469.2187499999999 62.5312187500001 446.2895937499999C64.6270625000002 450.4499999999998 64.6270625000002 448.3854374999999 64.6270625000002 448.3854374999999zM742.39790625 890.48334375C731.98125 900.9 719.46875 900.9 709.0208125 890.48334375S698.6041562500001 867.5541875 709.0208125 857.10625L817.4729062499999 748.65415625L709.0208125 638.1375C698.6041562500001 627.7208437500001 698.6041562500001 615.20834375 709.0208125 604.76040625C713.18121875 600.5999999999999 719.43746875 598.50415625 725.69371875 598.50415625S738.2062187500001 600.6 742.3666250000001 604.76040625L850.81871875 713.2125000000001L959.2708125 604.76040625C963.43121875 600.5999999999999 969.68746875 598.50415625 975.94371875 598.50415625S988.45621875 600.6 992.6166250000002 604.76040625C1003.0332812500002 615.1770625 1003.0332812500002 627.6895625 992.6166250000002 638.1375L884.1645312500001 746.5895937500001L992.6166250000002 855.0416875000001C1003.0332812500002 865.45834375 1003.0332812500002 877.9708437500001 992.6166250000002 888.41878125S969.6874687500002 898.8354375 959.2395312500003 888.41878125L850.7874375000001 779.9666875S742.3353437500001 890.48334375 742.3353437500001 890.48334375z" />
    <glyph glyph-name="heart"
      unicode="&#xE01E;"
      horiz-adv-x="1001" d="M713.2125 888.3875C844.59375 888.3875 950.95 782.03125 950.95 650.6500000000001C950.95 588.0875000000001 925.925 527.62084375 880.0354062499999 483.82709375L869.61875 473.4104375000001L525.525 127.22084375C510.9166562500001 112.6125000000001 487.9875000000001 112.6125000000001 475.475 127.22084375L450.45 152.2458437500001L120.96459375 483.82709375C27.12084375 575.5749999999999 25.025 725.7249999999999 118.86875 817.5041875C164.7583437500001 863.39378125 223.12915625 888.4187812499999 287.7875 888.4187812499999C350.35 888.4187812499999 410.8166562500001 863.39378125 454.61040625 819.60003125L500.5 773.7104374999999L546.38959375 819.60003125C590.18334375 863.39378125 650.6499999999999 888.4187812499999 713.2124999999999 888.4187812499999zM713.2125 938.4375C638.1375 938.4375 565.15834375 909.25209375 510.9166562500001 855.01040625L500.5000000000001 844.59375L490.0833437500001 855.01040625C377.4708437500002 965.5270625 196.0395937500001 965.5270625 83.4270937500001 855.01040625S-29.1854062499999 560.9666562499999 83.4270937500001 448.35415625L440.0333437500002 91.74790625C473.4104375000001 58.3708124999999 527.6208437500002 58.3708124999999 563.0625000000001 91.74790625L650.6500000000001 179.33540625L917.5729062500002 448.35415625C1030.1854062500001 560.9666562499999 1030.1854062500001 742.39790625 917.5729062500002 852.9145624999999C863.3625000000002 909.2208125 790.3520625000002 938.40621875 713.2125000000001 938.40621875z" />
    <glyph glyph-name="knowledge-base"
      unicode="&#xE01F;"
      horiz-adv-x="1001" d="M994.74375 500.5L838.3375 594.34375L998.90415625 832.08125C1001 834.17709375 1001 838.3375 1001 840.43334375S998.90415625 844.59375 996.83959375 846.68959375L950.95 875.875C946.7895937500002 877.97084375 940.53334375 875.875 938.4375000000002 873.77915625L779.9354062500001 631.8812499999999L510.9166562500002 792.44790625S508.8208125000002 794.54375 506.7562500000002 794.54375H350.3500000000002L4.1604062500002 583.92709375C2.0645625000002 581.83125 2e-13 579.7666875 2e-13 575.575S2.0958437500002 569.31875 4.1604062500002 567.22290625L39.6020625000002 546.3583125L8.3208125000002 527.5895625C6.2249687500002 527.5895625 6.2249687500002 525.49371875 6.2249687500002 523.42915625C6.2249687500002 523.42915625 6.2249687500002 521.3333125 8.3208125000002 519.2687500000001L43.7624687500002 498.40415625L6.2249687500002 475.475C4.1291250000002 475.475 4.1291250000002 473.3791562499999 4.1291250000002 471.31459375C4.1291250000002 471.31459375 4.1291250000002 469.21875 6.2249687500002 467.1541875L567.1916250000002 129.3166875000001H571.3520312500001C588.0249375000002 139.73334375 973.8478750000002 371.2145937500001 990.5207812500003 383.72709375C990.5207812500003 383.72709375 992.6166250000002 385.8229375 992.6166250000002 387.8875S992.6166250000002 389.98334375 990.5207812500003 392.04790625L955.0791250000002 412.9125C973.8478750000002 425.425 988.4562187500002 431.68125 990.5207812500003 433.7770937500001C990.5207812500003 433.7770937500001 992.6166250000002 435.8729375000001 992.6166250000002 437.9375S992.6166250000002 440.03334375 990.5207812500003 442.09790625L959.2395312500003 460.86665625C978.0082812500002 471.2833125 990.5207812500003 479.6354062500001 994.6811875000002 481.73125C996.7770312500002 483.82709375 998.8415937500002 485.89165625 998.8415937500002 490.08334375C998.8415937500002 496.33959375 998.8415937500002 498.4354375 994.6811875000002 500.5000000000001zM948.85415625 850.85L975.975 834.17709375L771.6145937499999 533.8770937500001L748.6854374999999 548.4854375C748.6854374999999 550.5812812500001 948.8854374999999 850.88128125 948.8854374999999 850.88128125zM740.33334375 529.6854062499999L757.0062500000001 519.26875L729.8854062500001 494.24375zM477.57084375 773.67915625L429.6166875 744.49375L383.72709375 773.67915625zM948.85415625 404.5604062500001L980.13540625 385.79165625C925.925 352.4145625 602.6645625 158.4708125 571.3833125 137.6374999999999L20.8333124999999 469.21875L54.2104062499999 487.9875000000001L569.3187499999999 177.2708437500001H571.4145937499999S573.5104374999999 177.2708437500001 573.5104374999999 177.2708437500001C588.1187812499999 187.6875 842.5291874999999 342.0291875000001 948.8854374999999 404.5916875000001zM980.13540625 437.9375C925.925 404.5604062500001 602.6645625 208.5520937500001 571.3833125 189.78334375L60.46665625 498.4354375C60.46665625 500.5312812500001 58.3708125 500.5312812500001 56.30625 500.5312812500001L22.92915625 521.395875L52.1145625 538.06878125L567.2229062499999 227.352125H575.5749999999999C588.0874999999999 235.70421875 844.59375 390.014625 950.95 454.67296875zM569.31875 250.25L29.18540625 575.575L350.35 769.51875L423.32915625 721.5645937500001C425.425 721.5645937500001 427.4895625000001 719.46875 427.4895625000001 719.46875H431.64996875L508.8208124999999 765.35834375L765.3270624999999 608.95209375L723.6291562499999 546.38959375V542.2291875L700.6999999999999 460.8979374999999C700.6999999999999 456.73753125 700.6999999999999 452.54584375 704.86040625 450.4812812499999H709.0208124999999S713.1812187499999 450.4812812499999 715.2770624999998 452.577125L779.9354062499999 510.97921875S779.9354062499999 510.97921875 782.0312499999999 513.0750625000001L825.8249999999998 577.73340625L969.7187499999998 492.24175C900.8999999999997 450.5438437500001 613.1124999999998 275.36884375 569.3187499999998 250.34384375zM569.31875 408.75209375C527.6208437500001 408.75209375 494.24375 392.0791875 494.24375 369.11875S525.5249999999999 329.48540625 569.31875 329.48540625S644.39375 346.1583125000001 644.39375 369.11875S613.1125 408.75209375 569.31875 408.75209375zM569.31875 348.25415625C538.0375 348.25415625 515.10834375 360.76665625 515.10834375 367.02290625S535.9729375000001 385.7916562500001 569.31875 385.7916562500001C600.6 385.7916562500001 623.52915625 373.2791562500002 623.52915625 367.02290625S602.6645625 348.25415625 569.31875 348.25415625zM560.96665625 663.1624999999999L283.5958125 500.5H281.49996875V502.59584375L558.8708124999999 667.3541875H560.96665625C563.0625 665.25834375 560.96665625 663.19378125 560.96665625 663.19378125zM358.70209375 611.01665625L233.57709375 535.94165625C231.48125 535.94165625 231.48125 535.94165625 229.4166875 535.94165625S223.1604375 538.0374999999999 221.06459375 540.1020624999999C218.96875 544.2624687499999 221.06459375 550.51871875 225.225 554.71040625L350.35 629.78540625C354.51040625 631.8812499999999 360.76665625 629.78540625 364.95834375 625.625C364.95834375 621.46459375 364.95834375 615.20834375 358.70209375 611.01665625zM600.6 636.04165625L329.48540625 473.3791562499999H327.3895625V475.475L598.5041562499999 638.1374999999999H600.6C602.69584375 638.1374999999999 602.69584375 636.04165625 600.6 636.04165625zM644.3937500000001 608.95209375L373.2791562500001 446.28959375H371.1833125000001V448.3854375L642.29790625 611.0479375H644.3937500000001C646.48959375 611.0479375 646.48959375 608.9520937499999 644.3937500000001 608.9520937499999zM686.09165625 579.73540625L412.9125 417.07290625H410.81665625V419.16875L681.9312499999999 581.83125H684.02709375C686.1229374999999 581.83125 686.1229374999999 579.7354062499999 686.1229374999999 579.7354062499999zM684.0270937500001 392.04790625L836.2729375 481.73125H838.3687812500001V479.6354062500001L686.1229375 389.9520625H684.0270937500001C681.93125 389.9520625 681.93125 392.04790625 684.0270937500001 392.04790625z" />
    <glyph glyph-name="lamp"
      unicode="&#xE020;"
      horiz-adv-x="750.75" d="M377.4708437500001 1001C168.91875 1001 0 832.08125 0 623.5291562499999C0 613.1125 8.35209375 604.76040625 16.67290625 604.76040625H118.86875V425.4250000000001H154.31040625V604.7604062500001H356.60625V141.79790625H141.79790625C133.4458124999999 143.8937500000001 125.125 135.5416562500001 125.125 125.125V16.67290625C125.125 8.3208125000001 133.47709375 0 141.79790625 0H611.01665625C619.3687499999999 0 627.6895625 8.35209375 627.6895625 16.67290625V125.125C627.6895625 133.47709375 619.33746875 141.79790625 611.01665625 141.79790625H394.14375V604.7604062500001H740.3333437499999C748.6854374999999 604.7604062500001 757.00625 613.1125000000001 757.00625 621.4333125C757.00625 832.0499687500001 585.99165625 1000.96871875 377.4708437500001 1000.96871875zM596.43959375 108.45209375V35.4729375000001H160.5979375V108.45209375zM35.44165625 640.23334375C43.79375 821.66459375 193.94375 965.55834375 377.4395625 965.55834375S711.1166562499999 821.66459375 719.43746875 640.23334375z" />
    <glyph glyph-name="left-long"
      unicode="&#xE021;"
      horiz-adv-x="1001" d="M990.58334375 510.91665625L50.0500000000001 513.0125L204.3604062500001 667.32290625C206.4562500000001 667.32290625 206.4562500000001 671.4833125 206.4562500000001 675.675C206.4562500000001 681.93125 200.2000000000001 688.1875 193.94375 688.1875C189.78334375 688.1875 187.6875 686.0916562499999 185.59165625 684.02709375L0 498.4354375L185.59165625 312.84378125C187.6875 312.84378125 189.7520625 310.7479375000001 193.94375 310.7479375000001C200.2000000000001 310.7479375000001 206.4562500000001 317.0041875000001 206.4562500000001 323.2604375C206.4562500000001 327.42084375 204.3604062500001 329.5166875 202.2958437500001 331.61253125L50.0500000000001 485.9229375H988.4875C994.74375 485.9229375 1001 492.1791875 1001 498.4354374999999C1003.09584375 506.7875312499999 996.83959375 510.9479374999999 990.58334375 510.9479374999999z" />
    <glyph glyph-name="left"
      unicode="&#xE022;"
      horiz-adv-x="469.21875" d="M465.05834375 47.95415625L64.65834375 500.5000000000001L458.80209375 955.11040625C465.0583437499999 961.36665625 467.1541875 965.5270625 467.1541875 971.7833125C471.31459375 980.13540625 465.0583437499999 988.45621875 458.80209375 994.71246875C448.3854375 1005.129125 431.6812500000001 1003.0645625 419.16875 992.616625L2.09584375 519.2374687500001C0 517.141625 0 515.0770625 0 515.0770625V492.14790625C0 490.0520625 2.09584375 490.0520625 2.09584375 485.89165625C4.1916875 483.7958125 4.1916875 483.7958125 4.1916875 483.7958125L421.26459375 10.4166562500001C427.52084375 4.1604062500001 431.6812500000001 2.0645625000001 440.0333437500001 2.0645625000001C456.70625 -0.0312812499999 471.31459375 10.4166562500001 471.31459375 27.0895625000001V29.1854062500001C473.4104375 37.5375000000001 471.31459375 41.6979062500001 465.05834375 47.9541562500001z" />
    <glyph glyph-name="list"
      unicode="&#xE023;"
      horiz-adv-x="1001" d="M227.32084375 894.64375H1001V811.21665625H227.32084375zM0 896.73959375H87.5875V809.15209375H0zM6.25625 546.38959375H93.84375V458.80209375H6.25625zM227.32084375 544.29375H1001V460.86665625H227.32084375zM6.25625 191.8479062499999H93.84375V104.26040625H6.25625zM227.32084375 189.78334375H1001V106.3562499999999H227.32084375z" />
    <glyph glyph-name="located"
      unicode="&#xE024;"
      horiz-adv-x="813.3125" d="M412.9125 1001C185.59165625 1001 0 815.40834375 0 588.0875000000001C0 273.17915625 412.9125 0 412.9125 0S825.8249999999999 273.17915625 825.8249999999999 588.0875000000001C827.92084375 815.4083437500001 642.29790625 1001 412.9125 1001zM412.9125 266.92290625C235.64165625 266.92290625 91.74790625 410.8166562500001 91.74790625 588.0875000000001S235.64165625 909.25209375 412.9125 909.25209375S734.07709375 765.35834375 734.07709375 588.0875000000001S590.18334375 266.92290625 412.9125 266.92290625zM611.01665625 581.83125C611.01665625 471.31459375 521.3333125 383.72709375 412.9125 383.72709375S214.80834375 473.4104375000001 214.80834375 581.83125S304.4916875000001 779.93540625 412.9125 779.93540625S611.01665625 690.2520625 611.01665625 581.83125z" />
    <glyph glyph-name="long-down"
      unicode="&#xE025;"
      horiz-adv-x="218.96875" d="M120.96459375 2.09584375L229.4166875 104.2916875C231.51253125 106.3875312499999 231.51253125 110.5479375 229.4166875 112.64378125S223.1604375 114.7396249999999 221.06459375 112.64378125L120.96459375 20.8958749999999V994.77503125C120.96459375 998.9354375 118.86875 1001.03128125 114.70834375 1001.03128125S108.45209375 998.9354375 108.45209375 994.77503125V20.8958749999999L10.4479375 112.64378125C8.35209375 114.7396249999999 4.1916875 114.7396249999999 2.09584375 112.64378125S0 108.483375 2.09584375 104.2916875L110.5479375 2.09584375C114.70834375 0 118.90003125 0 120.96459375 2.09584375z" />
    <glyph glyph-name="menu"
      unicode="&#xE026;"
      horiz-adv-x="1001" d="M39.63334375 829.98540625C18.76875 829.98540625 0 846.6583125 0 867.52290625S18.76875 907.15625 39.63334375 907.15625H963.4625C984.32709375 907.15625 1003.09584375 888.3875 1003.09584375 867.52290625S984.32709375 827.8895625 963.4625 827.8895625C961.36665625 829.9854062500001 39.63334375 829.9854062500001 39.63334375 829.9854062500001zM39.63334375 456.7062500000001C18.76875 456.7062500000001 0 475.4750000000001 0 496.33959375S18.76875 535.9729375 39.63334375 535.9729375H963.4625C984.32709375 535.9729375 1003.09584375 517.2041875 1003.09584375 496.33959375S984.32709375 456.7062500000001 963.4625 456.7062500000001C961.36665625 456.7062500000001 39.63334375 456.7062500000001 39.63334375 456.7062500000001zM39.63334375 85.49165625C18.76875 85.49165625 0 104.2604062500001 0 125.125S18.76875 164.75834375 39.63334375 164.75834375H963.4625C984.32709375 164.75834375 1003.09584375 145.9895937499999 1003.09584375 125.125S984.32709375 85.49165625 963.4625 85.49165625C961.36665625 85.49165625 39.63334375 85.49165625 39.63334375 85.49165625z" />
    <glyph glyph-name="minus"
      unicode="&#xE027;"
      horiz-adv-x="1001" d="M22.92915625 473.3791562499999C10.41665625 473.3791562499999 0 485.89165625 0 498.40415625S10.41665625 521.3333125 22.92915625 521.3333125H975.975C990.58334375 521.3333125 1001 510.91665625 1001 498.40415625S990.58334375 475.475 978.07084375 475.475C978.07084375 473.3791562499999 22.9604374999999 473.3791562499999 22.9604374999999 473.3791562499999z" />
    <glyph glyph-name="phone-support"
      unicode="&#xE028;"
      horiz-adv-x="1001" d="M500.5 404.5604062500001C602.69584375 404.5604062500001 690.28334375 465.0270624999999 731.9812499999999 550.55H838.3374999999999V663.1624999999999C838.3374999999999 848.7541562499999 688.1874999999999 1001 500.4999999999999 1001S160.5666562499999 848.75415625 160.5666562499999 661.06665625V646.4583124999999H241.8979062499999C252.3145624999999 510.91665625 362.8624999999999 404.5604062500001 500.4999999999998 404.5604062500001zM711.11665625 581.83125H592.24790625C585.99165625 608.9520937499999 560.96665625 629.78540625 531.78125 629.78540625C498.40415625 629.78540625 469.21875 602.6645624999999 469.21875 567.22290625C469.21875 533.8458125 496.33959375 504.66040625 531.78125 504.66040625C558.9020937500001 504.66040625 581.8312500000001 523.42915625 590.1833437500001 548.45415625H694.4437500000001C654.8104062500001 481.7312499999999 581.8312500000001 435.8416562500001 498.4041562500001 435.8416562500001C373.2791562500001 435.8416562500001 273.1791562500001 538.0374999999999 273.1791562500001 661.06665625S375.3750000000001 888.3875 500.5000000000001 888.3875S725.7250000000001 786.1916562499999 725.7250000000001 663.1624999999999C725.7250000000001 633.97709375 721.5645937500001 606.8562499999999 711.1166562500001 581.83125zM563.0625 567.22290625C563.0625 550.55 550.5500000000001 538.0374999999999 533.87709375 538.0374999999999S504.6916875 550.55 504.6916875 567.22290625S517.2041875 596.4083125 533.87709375 596.4083125C548.4854375 596.4083125 563.0625 583.8958124999999 563.0625 567.22290625zM500.5 967.62290625C669.4187499999999 967.62290625 807.05625 829.98540625 807.05625 661.06665625V579.73540625H746.5895937500001C754.9416875000001 604.76040625 759.10209375 631.8812499999999 759.10209375 661.06665625C759.10209375 802.8645624999999 642.3291875 919.66875 500.5 919.66875C362.8625 919.66875 252.34584375 813.3125 243.9937500000001 677.7708437499999H193.94375C202.2958437500001 840.43334375 335.74165625 967.6541875 500.5 967.6541875zM734.07709375 440.03334375S644.39375 339.9333437500001 500.5 339.9333437500001S266.9229062500001 440.03334375 266.9229062500001 440.03334375S1e-13 331.5812500000001 1e-13 0H1001C1005.16040625 327.42084375 734.07709375 440.03334375 734.07709375 440.03334375zM33.37709375 33.37709375C37.5375 187.6875 125.125 325.325 260.6979375 400.4C325.35628125 339.9333437500001 410.8479375 306.55625 500.5312812499999 306.55625S673.6104375 339.9333437500001 740.3646249999999 400.4C878.002125 327.42084375 963.49378125 187.6875 969.7500312499998 33.37709375zM483.82709375 275.275H515.10834375V243.99375H483.82709375zM483.82709375 193.94375H515.10834375V162.6625H483.82709375zM483.82709375 112.6125000000001H515.10834375V81.3312500000001H483.82709375z" />
    <glyph glyph-name="plan"
      unicode="&#xE029;"
      horiz-adv-x="1001" d="M396.23959375 375.375C392.0791875 375.375 387.8875 375.375 385.8229375 379.53540625L10.4479375 615.1770625C2.09584375 619.33746875 0.03128125 625.59371875 0.03128125 633.9458125S6.28753125 648.55415625 14.639625 650.61871875L973.94171875 998.872875C982.2938125 1003.03328125 992.7104687500002 998.872875 998.96671875 990.52078125S1003.1271250000002 971.75203125 996.870875 965.49578125L412.9437812500001 381.5686874999999C406.6875312500001 377.40828125 402.527125 375.3124374999999 396.2708750000001 375.3124374999999zM68.81875 627.7208437500001L394.1437500000001 423.3604375L898.80415625 928.02084375zM631.88125 0C625.625 0 617.27290625 4.1604062499999 615.2083437499999 10.41665625L379.5666874999999 385.79165625C375.40628125 394.14375 375.40628125 404.5604062500001 381.6625312499999 410.81665625L965.589625 994.74375C971.845875 1001 984.358375 1003.09584375 990.614625 996.83959375C998.96671875 990.58334375 1003.127125 982.23125 998.96671875 971.81459375L650.7125625 12.5124999999999C648.61671875 4.1604062499999 640.29590625 0 634.0396562499999 -2.09584375C634.0396562499999 0 634.0396562499999 0 631.9438124999999 0zM423.32915625 394.1437500000001L627.6895625 68.8187500000001L927.9895625 898.8041562500001S423.32915625 394.1437500000002 423.32915625 394.1437500000002z" />
    <glyph glyph-name="plus"
      unicode="&#xE02A;"
      horiz-adv-x="1001" d="M998.90415625 500.5C998.90415625 513.0125 988.4875 523.42915625 975.975 523.42915625H523.4291562499999V978.0395625C523.4291562499999 990.5520625 513.0124999999999 1000.96871875 500.4999999999999 1000.96871875S477.5708437499999 990.5520625 477.5708437499999 978.0395625V525.49371875H22.9604374999999C10.4479374999999 523.397875 0.0312812499999 512.9812187499999 0.0312812499999 500.4687187499999S10.4479374999999 477.5395625 22.9604374999999 477.5395625H475.5062812499999V24.99371875C475.5062812499999 12.48121875 485.9229374999999 2.0645625 498.4354374999999 2.0645625S521.3645937499999 12.4812187499999 521.3645937499999 24.99371875V477.5395625H973.9104375C988.51878125 477.5395625 998.9354375 487.9562187499999 998.9354375 500.4687187499999z" />
    <glyph glyph-name="refund"
      unicode="&#xE02B;"
      horiz-adv-x="1001" d="M408.7520937500001 898.80415625L510.9479375 959.2708125V834.1458125zM250.25 517.17290625V552.6145625H606.8562499999999L590.18334375 517.1729062500001zM250.25 417.07290625V452.5145624999999H556.80625L540.13334375 417.07290625zM569.31875 214.8083437500001C421.26459375 214.8083437500001 300.3 335.7729375 300.3 483.82709375S421.26459375 752.84584375 569.31875 752.84584375C623.52915625 752.84584375 675.675 736.1729375 721.56459375 704.8916875L700.6999999999999 677.7708437499999C661.0666562499999 704.8916875 617.2729062499999 719.46875 569.31875 719.46875C440.0333437500001 719.46875 335.74165625 615.2083437499999 335.74165625 485.89165625S440.0020625 252.3145625 569.31875 252.3145625C617.27290625 252.3145625 663.1625 266.92290625 700.6999999999999 294.01246875L721.56459375 266.8916249999999C675.6750000000001 231.44996875 625.625 214.7457812499998 569.31875 214.7457812499998zM150.15 552.64584375H273.17915625V517.2041875H150.15zM50.05 552.64584375H85.49165625V517.2041875H50.05zM150.15 450.4499999999999H185.59165625V417.07290625H150.15zM0 52.14584375V87.5875H569.31875C788.2875 87.5875 965.55834375 264.85834375 965.55834375 483.82709375S788.2874999999999 880.0666875 569.3187499999999 880.0666875H502.5958437499999V915.50834375H569.3187499999999C807.0562499999999 915.50834375 1000.9999999999998 721.56459375 1000.9999999999998 483.82709375S807.0562499999999 52.1458437499999 569.3187499999999 52.1458437499999z" />
    <glyph glyph-name="return"
      unicode="&#xE02C;"
      horiz-adv-x="875.875" d="M462.9625 571.41459375V611.0479375H417.07290625V571.41459375L410.8166562500001 569.3187499999999C385.79165625 567.22290625 308.6208125000001 552.64584375 308.6208125000001 481.7312499999999C308.6208125000001 412.9125 364.9270625000001 400.3999999999999 433.7458125000001 392.04790625C471.2833125 387.8875 521.3333125 377.4395625 521.3333125 339.9020624999999C521.3333125 304.4604062499999 487.95621875 283.5958124999999 433.7458125 283.5958124999999C398.30415625 283.5958124999999 354.51040625 300.26871875 339.9020625 329.4854062499999L298.20415625 312.8124999999998C323.22915625 260.6666562499998 379.53540625 246.0895937499999 410.81665625 243.9937499999998H417.07290625V200.1999999999998H460.8666562499999V246.0895937499999H467.1229062499999C519.26875 250.2499999999998 569.31875 279.4666874999998 569.31875 339.9333437499999C569.31875 412.9124999999999 508.85209375 425.4249999999999 435.84165625 433.7770937499999C398.30415625 437.9374999999998 354.51040625 444.1937499999998 354.51040625 481.7312499999998C354.51040625 515.1083437499999 383.6958125 531.7812499999998 433.7458125 531.7812499999998C467.12290625 531.7812499999998 498.40415625 519.2687499999998 512.98121875 498.4041562499999L550.5187187500001 515.0770624999998C533.8458125 544.2624687499999 506.7249687500001 563.0312187499999 462.93121875 567.2229062499998zM700.6999999999999 777.87084375C690.28334375 784.12709375 679.8354062499999 784.12709375 671.51459375 773.7104375C665.25834375 763.2937812499999 665.25834375 752.84584375 675.675 744.52503125C790.3833437499999 656.9375312500001 846.6895937499999 513.0437812499999 823.72915625 371.2458750000001C790.3520625 156.43753125 588.0874999999999 8.383375 373.2791562499999 43.8250312500001S10.41665625 281.5625312500001 45.8583124999999 496.3708750000001C62.5312187499999 600.63128125 116.7729062499999 692.4104687500001 202.2645624999999 752.877125C277.3395625 807.0875312500001 367.0229062499999 832.1125312500001 456.6749687499999 827.952125L354.4791249999999 725.75628125C346.1270312499999 717.4041875 346.1270312499999 704.8916875000001 354.4791249999999 696.5708750000001C358.6395312499999 692.4104687500001 364.8957812499999 690.3146250000001 369.0874687499999 690.3146250000001S379.504125 692.4104687500001 383.6958125 696.5708750000001L531.74996875 844.6250312500001L383.6958125 992.6791875C375.34371875 1001.03128125 362.83121875 1001.03128125 354.51040625 992.6791875S346.1583125 971.81459375 354.51040625 963.49378125L450.4499999999999 867.5541875000001C354.51040625 869.6500312500001 258.60209375 842.5291875 179.33540625 784.1270937500001C85.49165625 717.4041875 22.92915625 615.20834375 6.25625 500.5000000000001C-31.28125 262.7625000000001 131.3812499999999 39.6333437500001 369.1187499999999 2.09584375C392.04790625 -2.0645625000001 415.00834375 -4.1604062500001 437.9374999999999 -4.1604062500001C529.6854062499999 -4.1604062500001 617.2729062499999 25.0249999999999 692.3479062499998 79.2666875C786.1916562499998 148.0854374999999 848.7541562499998 248.1854374999999 865.4270624999999 362.89378125C888.3562187499999 523.4604374999999 827.8895624999999 681.96253125 700.6687187499999 777.902125z" />
    <glyph glyph-name="right-long"
      unicode="&#xE02D;"
      horiz-adv-x="1001" d="M12.5125 513.0125H950.95L796.63959375 667.32290625C794.5437499999999 669.41875 792.4791875 671.4833125 792.4791875 675.675C792.4791875 681.93125 798.7354375 688.1875 804.9916874999999 688.1875C809.15209375 688.1875 811.2479374999999 686.0916562499999 813.3437812499999 684.02709375L1001.0312812499998 498.4354375S817.5041875 314.90834375 817.5041875 312.84378125C815.4083437499999 310.7479375000001 813.3437812499999 308.6833750000001 809.15209375 308.6833750000001C802.8958437499999 308.6833750000001 796.63959375 314.9396250000001 796.63959375 321.195875C796.63959375 325.35628125 798.7354375 327.452125 800.8 329.54796875L955.11040625 483.858375H12.5125C4.16040625 485.95421875 0 492.21046875 0 498.46671875C0 506.8188124999999 4.16040625 513.0750625000001 12.5125 513.0750625000001z" />
    <glyph glyph-name="right"
      unicode="&#xE02E;"
      horiz-adv-x="469.21875" d="M0 29.18540625V27.0895624999999C0 10.41665625 14.60834375 -0.0312812499999 31.28125 2.0645625C39.63334375 2.0645625 45.88959375 4.1604062499999 50.05 10.41665625L467.12290625 483.7958124999999S467.12290625 483.7958124999999 469.21875 485.89165625C469.21875 487.9875 471.31459375 487.9875 471.31459375 492.1479062499999C471.31459375 492.1479062499999 471.31459375 492.1479062499999 471.31459375 494.2437499999999V496.3395937499999S471.31459375 496.3395937499999 471.31459375 498.4354374999999V515.1083437499999S471.31459375 517.2041875 469.21875 517.2041875L52.14584375 990.58334375C41.7291875 1003.0958437499997 25.025 1005.1916874999998 14.60834375 994.7437499999997C8.35209375 988.4874999999998 2.09584375 980.1354062499998 6.25625 971.8145937499997C6.25625 965.5583437499998 8.35209375 961.3979374999998 14.60834375 955.1416874999998L408.7520937500001 500.5312812499999L8.35209375 47.9854375C2.09584375 41.7291875 0 37.56878125 0 29.2166874999999z" />
    <glyph glyph-name="search"
      unicode="&#xE02F;"
      horiz-adv-x="1001" d="M984.32709375 66.7229062499999L775.7749999999999 275.2749999999999C934.27709375 462.9624999999999 907.1562499999998 738.2375 719.4687499999999 896.7395937499999S260.6666562499999 1030.2166875 104.2604062499998 840.43334375S-27.1208437500002 377.4708437499999 160.5666562499998 218.9687499999999C323.2291562499999 81.3312499999998 563.0624999999999 81.3312499999998 725.7249999999999 218.9687499999999L934.27709375 10.41665625C948.8854374999999 -4.1916875000001 975.975 -4.1916875000001 990.58334375 10.41665625C1005.1916875 27.0895624999999 998.9354375 52.1145624999999 984.32709375 66.7229062499999zM77.17084375 556.8062500000001C77.17084375 754.91040625 241.9291875 917.57290625 440.0333437500001 917.57290625S800.8000000000001 754.91040625 800.8000000000001 556.8062500000001S638.1375 196.0395937500001 440.0333437500001 196.0395937500001C241.9291875000001 193.9437500000001 77.1708437500001 358.70209375 77.1708437500001 556.8062500000001z" />
    <glyph glyph-name="search2"
      unicode="&#xE030;"
      horiz-adv-x="1001" d="M640.23334375 356.60625C713.2124999999999 429.5854062499999 750.75 517.1729062499999 750.75 623.5291562499999C750.75 727.7895624999999 713.2125 817.4729062499999 640.23334375 890.4520624999999S479.6666875 1000.9687187499998 377.47084375 1000.9687187499998S183.52709375 963.43121875 110.5479375 890.4520624999999S0.03128125 727.7895624999999 0.03128125 623.5291562499999S37.56878125 433.7458125 110.5479375 360.76665625S273.2104375 250.2499999999999 373.3104375 250.2499999999999C479.6666875 246.08959375 567.2541875000001 283.6270937499999 640.23334375 356.6062499999998zM711.11665625 623.5291562499999C711.11665625 529.6854062499999 677.7395625 452.5145625 611.01665625 385.79165625S467.12290625 289.8520625 373.2791562500001 289.8520625S202.2645625000001 323.22915625 135.5416562500001 385.79165625C68.8187500000001 452.5145624999999 39.6020625000001 529.6854062499999 39.6020625000001 623.5291562499999S72.9791562500001 794.5437499999999 137.6062187500001 861.2666562499999C204.3291250000001 927.9895625 281.4999687500001 961.3666562499998 375.3437187500001 961.3666562499998S546.3583125 927.9895625 613.0812187500001 861.2666562499999S711.0853750000001 717.3729062499999 711.0853750000001 623.5291562499999zM990.58334375 6.25625C1001 16.67290625 1001 27.1208437500001 990.58334375 35.4416562499999L646.48959375 362.8625000000001C636.0729375000001 373.2791562500001 625.625 373.2791562500001 617.3041875 362.8625000000001S606.88753125 341.9979062500001 617.3041875 333.6770937500001L961.3979375 6.2562500000001C965.55834375 2.0958437500001 971.81459375 1e-13 978.0708437500002 1e-13S988.4875 4.1604062500001 990.58334375 6.2562500000001z" />
    <glyph glyph-name="search3"
      unicode="&#xE031;"
      horiz-adv-x="1001" d="M984.32709375 66.7229062499999L775.7749999999999 275.2749999999999C934.27709375 462.9624999999999 907.1562499999998 738.2375 719.4687499999999 896.7395937499999S260.6666562499999 1030.2166875 104.2604062499998 840.43334375S-27.1208437500002 377.4708437499999 160.5666562499998 218.9687499999999C323.2291562499999 81.3312499999998 563.0624999999999 81.3312499999998 725.7249999999999 218.9687499999999L934.27709375 10.41665625C948.8854374999999 -4.1916875000001 975.975 -4.1916875000001 990.58334375 10.41665625C1005.1916875 27.0895624999999 998.9354375 52.1145624999999 984.32709375 66.7229062499999zM77.17084375 556.8062500000001C77.17084375 754.91040625 241.9291875 917.57290625 440.0333437500001 917.57290625S800.8000000000001 754.91040625 800.8000000000001 556.8062500000001S638.1375 196.0395937500001 440.0333437500001 196.0395937500001C241.9291875000001 193.9437500000001 77.1708437500001 358.70209375 77.1708437500001 556.8062500000001z" />
    <glyph glyph-name="ship"
      unicode="&#xE032;"
      horiz-adv-x="1001" d="M998.90415625 515.10834375L894.6437500000001 667.3541875C892.54790625 671.5145937499999 888.3875 673.6104375 884.2270937500001 673.6104375H784.1270937500001V679.8666874999999C784.1270937500001 719.5000312499999 752.8458437500001 750.7812812499999 713.2125000000001 750.7812812499999H323.2291562500002C283.5958125000002 750.7812812499999 252.3145625000002 719.5000312499999 252.3145625000002 679.8666874999999V663.19378125H-0.0312812499999V638.1687812499999H252.3145625000002V571.4458749999999H75.0437187500001V546.4208749999999H252.3145625000002V479.6979687499999H160.5666562500001V454.6729687499999H252.3145625000002V427.5521249999998C252.3145625000002 387.91878125 283.5958125000002 356.63753125 323.2291562500002 356.63753125H333.6458125000002C333.6458125000002 352.4771249999999 331.5499687500001 346.220875 331.5499687500001 342.0291874999999C331.5499687500001 291.9791874999999 373.2478750000002 250.2812812499999 423.2978750000001 250.2812812499999S515.0457812500001 291.9791874999999 515.0457812500001 342.0291874999999C515.0457812500001 346.1895937499999 515.0457812500001 352.4458437499999 512.9499375000001 356.63753125H681.8686875000001C681.8686875000001 352.4771249999999 679.7728437500001 346.220875 679.7728437500001 342.0291874999999C679.7728437500001 291.9791874999999 721.47075 250.2812812499999 771.52075 250.2812812499999S863.26865625 291.9791874999999 863.26865625 342.0291874999999C863.26865625 346.1895937499999 863.26865625 352.4458437499999 861.1728125000001 356.63753125H988.39365625C994.64990625 356.63753125 1000.90615625 362.8937812499999 1000.90615625 369.1500312499999V510.9479374999999S1000.90615625 513.0437812499999 998.8103125 515.1083437499999zM423.32915625 271.1145937500001C387.8875 271.1145937500001 358.6708125 300.3000000000001 358.6708125 335.7729375S387.85621875 400.4312812500001 423.32915625 400.4312812500001S487.9875 371.2458750000001 487.9875 335.7729375C490.08334375 300.3312812500001 460.86665625 271.1145937500001 423.32915625 271.1145937500001zM504.66040625 377.47084375C490.0520625 406.65625 458.7708125 427.5208437500001 423.32915625 427.5208437500001S356.60625 406.65625 341.99790625 377.47084375H323.22915625C298.20415625 377.47084375 277.3395625 398.3354375 277.3395625 423.3604375V679.8666874999999C277.3395625 704.8916875 298.20415625 725.75628125 323.22915625 725.75628125H713.2125C738.2375000000001 725.75628125 759.10209375 704.8916875 759.10209375 679.8666874999999V425.45628125C729.9166875 421.295875 704.8916875 402.527125 692.3791875000001 377.502125zM771.61459375 271.1145937500001C736.1729375000001 271.1145937500001 706.9562500000001 300.3000000000001 706.9562500000001 335.7729375S736.14165625 400.4312812500001 771.61459375 400.4312812500001S836.2729375 371.2458750000001 836.2729375 335.7729375S807.0875312500001 271.1145937500001 771.61459375 271.1145937500001zM975.975 377.47084375H852.94584375C840.4333437500001 402.4958437500001 815.40834375 421.26459375 786.2229375000001 425.4250000000001V646.48959375H880.0666875000001L976.00628125 502.5958437500001z" />
    <glyph glyph-name="ship2"
      unicode="&#xE033;"
      horiz-adv-x="969.71875" d="M14.60834375 0C6.25625 0 0 6.25625 0 14.60834375V792.4791875S2.09584375 792.4791875 2.09584375 794.5750312499999L4.1916875 796.670875V798.76671875S4.1916875 800.8625625 6.28753125 800.8625625L198.1354375 996.90215625C198.1354375 998.998 202.29584375 1001.0625625 206.48753125 1001.0625625H752.877125C754.97296875 1001.0625625 761.2292187499999 998.96671875 765.3896249999999 996.90215625L959.3333749999998 800.8625625C959.3333749999998 798.76671875 961.42921875 798.76671875 961.42921875 798.76671875C961.42921875 796.670875 961.42921875 796.670875 963.5250624999998 796.670875V16.73546875C963.5250624999998 8.383375 957.2688124999999 2.1271250000001 948.9167187499997 2.1271250000001zM29.18540625 29.18540625H934.2458125V775.7750000000001H29.18540625zM496.33959375 804.96040625H913.4125000000003L746.5895937500002 973.87915625H496.3395937500001zM47.95415625 804.96040625H465.0270625V971.7833125H210.61665625S47.95415625 804.96040625 47.95415625 804.96040625zM481.73125 214.8083437500001C473.3791562500001 214.8083437500001 467.12290625 221.06459375 467.12290625 229.4166875V540.13334375L337.8375000000001 410.8479375000001C335.74165625 408.75209375 331.5812500000001 406.68753125 327.42084375 406.68753125C321.1645937500001 406.68753125 319.06875 408.7833750000001 317.0041875 410.8479375000001C310.7479375000001 417.1041875 310.7479375000001 425.45628125 317.0041875 431.7125312500001L473.4104375 586.0229375000001C475.50628125 588.11878125 479.6666875 590.18334375 483.82709375 590.18334375S492.1791875 588.0875000000001 494.24375 586.0229375000001L648.55415625 431.7125312500001C654.81040625 425.4562812500001 654.81040625 417.1041875000001 648.55415625 410.8479375000001C646.4583125 408.75209375 642.29790625 406.68753125 638.1375 406.68753125S629.78540625 408.7833750000001 627.7208437500001 410.8479375000001L498.4354375000001 540.13334375V229.4166875C496.3395937500001 221.06459375 490.0833437500002 214.8083437500001 481.7625312500002 214.8083437500001z" />
    <glyph glyph-name="sofa"
      unicode="&#xE034;"
      horiz-adv-x="1001" d="M398.30415625 548.45415625H448.35415625V523.42915625H398.30415625zM241.89790625 548.45415625H291.94790625V523.42915625H241.89790625zM398.30415625 679.83540625H448.35415625V654.8104062499999H398.30415625zM241.89790625 679.83540625H291.94790625V654.8104062499999H241.89790625zM706.9562500000001 679.83540625H757.0062500000001V654.8104062499999H706.9562500000001zM552.64584375 679.83540625H602.6958437500001V654.8104062499999H552.64584375zM706.9562500000001 548.45415625H757.0062500000001V523.42915625H706.9562500000001zM552.64584375 548.45415625H602.6958437500001V523.42915625H552.64584375zM986.39165625 692.34790625H865.4270625C842.49790625 746.5583125 790.3520625000001 782.03125 727.7895625 782.03125H271.0833125C208.5208125 782.03125 156.37496875 746.58959375 133.4458124999999 692.34790625H12.4812187499999C6.2249687499999 692.34790625 -0.0312812500001 686.0916562499999 -0.0312812500001 679.83540625V306.5562499999999C-0.0312812500001 300.3 6.2249687499999 294.04375 12.4812187499999 294.04375H114.6770625L95.9083124999999 225.225L120.9333124999999 218.96875L141.7979062499999 296.13959375H857.1062499999999L877.97084375 218.96875L902.99584375 225.225L884.22709375 294.04375H986.4229375C992.6791874999998 294.04375 998.9354375 300.3 998.9354375 306.5562499999999V679.8354062499999C1001.0312812499998 688.1874999999999 994.77503125 692.3479062499999 986.4229375 692.3479062499999zM145.98959375 629.78540625C145.98959375 698.60415625 202.29584375 754.9104062499999 271.11459375 754.9104062499999H727.82084375C796.63959375 754.9104062499999 852.94584375 698.60415625 852.94584375 629.78540625V467.12290625C852.94584375 460.86665625 852.94584375 454.61040625 850.85 450.4499999999999H145.9895937499999C145.9895937499999 454.61040625 145.9895937499999 460.8666562499999 145.9895937499999 467.12290625zM973.87915625 321.16459375H25.025V667.3541875H118.86875V437.9687812499999C118.86875 431.71253125 125.125 425.45628125 131.38125 425.45628125H867.5229062500001C873.7791562500001 425.45628125 880.03540625 431.71253125 880.03540625 437.9687812499999V667.3541874999999H973.87915625z" />
    <glyph glyph-name="sort"
      unicode="&#xE035;"
      horiz-adv-x="1001" d="M415.00834375 454.61040625V552.6145625H804.9916875V454.61040625zM415.00834375 160.5666562499999V258.5708125H611.0479375V160.5666562499999zM415.00834375 746.5895937500001V844.59375H1001V746.5895937500001zM218.96875 258.60209375H341.99790625L170.9833125 87.5875L-0.03128125 258.60209375H122.997875V746.58959375H-0.03128125L170.9833125 917.6041875L341.99790625 746.58959375H218.96875z" />
    <glyph glyph-name="start"
      unicode="&#xE036;"
      horiz-adv-x="1001" d="M191.84790625 27.1208437500001L250.25 373.3104375000001L0 617.3041875000001L346.1895937500001 667.3541875000001L500.5 980.1666875L654.81040625 667.3541875000001L1001 617.3041875000001L750.75 373.3104375000001L809.1520937500001 29.2166875L500.5 189.78334375zM500.5 235.64165625L757.00625 100.1000000000001L709.0520937499999 385.7916562500001L917.6041874999999 588.0875000000001L629.8166875 629.78540625L500.5312812499999 890.4520625L373.3104374999999 629.78540625L85.5229374999999 588.0875000000001L294.07503125 385.7916562500001L246.120875 100.1000000000001z" />
    <glyph glyph-name="stool"
      unicode="&#xE037;"
      horiz-adv-x="813.3125" d="M656.90625 1001H156.40625C70.91459375 1001 0 930.08540625 0 844.59375C0 773.67915625 45.88959375 715.30834375 108.45209375 696.53959375V598.5354375C108.45209375 588.11878125 118.86875 577.67084375 129.3166875 577.67084375H383.72709375V248.1854375000001C258.60209375 237.7687812500001 158.50209375 131.41253125 158.50209375 2.09584375H202.29584375C202.29584375 106.3562499999999 281.53125 193.94375 383.72709375 204.3916875V0.0312812499999H427.52084375V202.3271249999999C529.7166875 191.91046875 608.95209375 104.3229687499999 608.95209375 0.0312812499999H652.74584375C652.74584375 129.3166875 554.7416874999999 233.6083749999999 427.52084375 246.120875V575.6062812499999H681.9312499999999C692.3479062499998 575.6062812499999 702.79584375 586.0229374999999 702.79584375 596.470875V694.4750312499999C765.35834375 715.3396249999998 811.2479374999999 773.7104374999999 811.2479374999999 842.5291874999999C813.3437812499999 930.1166874999998 744.52503125 1001.0312812499998 656.9375312499999 1001.0312812499998zM661.0666562499999 619.3687500000001H152.2145625V688.1875H663.1312187499999V619.3687500000001zM656.90625 729.88540625H156.40625C93.84375 729.88540625 41.69790625 782.03125 41.69790625 844.59375S93.84375 959.30209375 156.40625 959.30209375H656.90625C719.46875 959.30209375 771.61459375 907.15625 771.61459375 844.59375S719.46875 729.88540625 656.90625 729.88540625z" />
    <glyph glyph-name="table"
      unicode="&#xE038;"
      horiz-adv-x="1001" d="M982.23125 855.01040625H18.7687499999999C8.3520937499999 855.01040625 -1e-13 846.6583125 -1e-13 836.24165625V721.5333125C-1e-13 711.11665625 8.3520937499999 702.7645625 18.7687499999999 702.7645625H206.4562499999999L473.3791562499999 435.8416562500001L202.2645624999999 162.6625L229.38540625 135.54165625L500.4999999999999 408.7208125L773.6791562499999 135.54165625L800.8 162.6625L527.62084375 435.8416562500001L794.5437499999999 702.7645625H982.23125C992.6479062499998 702.7645625 1001 711.11665625 1001 721.5333125V836.24165625C1003.09584375 846.6583125 992.64790625 855.01040625 982.23125 855.01040625zM500.5 462.9625L260.66665625 702.79584375H740.3020625zM963.4625 740.33334375H37.5375V817.5041875H963.4625z" />
    <glyph glyph-name="times"
      unicode="&#xE039;"
      horiz-adv-x="1001" d="M18.76875 0C12.5125 0 8.35209375 2.09584375 4.16040625 6.25625C-4.1916875 14.60834375 -4.1916875 25.025 4.16040625 33.37709375L967.62290625 994.74375C975.975 1003.09584375 986.39165625 1003.09584375 994.74375 994.74375S1003.09584375 975.975 994.74375 967.62290625L33.37709375 6.25625C29.2166875 2.09584375 25.025 0 18.76875 0zM982.23125 0C975.975 0 971.81459375 2.09584375 967.62290625 6.25625L6.25625 967.62290625C-2.09584375 975.975 -2.09584375 986.39165625 6.25625 994.74375S25.025 1003.09584375 33.37709375 994.74375L994.74375 33.37709375C1003.09584375 25.025 1003.09584375 14.60834375 994.74375 6.25625C990.58334375 2.09584375 986.39165625 0 982.23125 0z" />
    <glyph glyph-name="togle"
      unicode="&#xE03A;"
      horiz-adv-x="1001" d="M969.71875 907.15625H31.28125C14.60834375 907.15625 0 892.54790625 0 875.875S14.60834375 844.59375 31.28125 844.59375H971.81459375C988.4875 844.59375 1003.09584375 859.20209375 1003.09584375 875.875S986.4229375 907.15625 969.71875 907.15625zM969.71875 527.62084375H31.28125C14.60834375 527.62084375 0 513.0125 0 496.33959375S14.60834375 465.0583437500001 31.28125 465.0583437500001H971.81459375C988.4875 465.0583437500001 1003.09584375 479.6666875 1003.09584375 496.33959375S986.4229375 527.62084375 969.71875 527.62084375zM969.71875 150.15H31.28125C14.60834375 150.15 0 135.5416562500001 0 118.86875S14.60834375 87.5875 31.28125 87.5875H971.81459375C988.4875 87.5875 1003.09584375 102.19584375 1003.09584375 118.86875S986.4229375 150.15 969.71875 150.15z" />
    </font>
</defs>
</svg>
